» » Bleach Season 1 Complete 480p x265 Eng Dubbed
Language: English
Size: 1.1 GB
Rating: 4.2
Category: Anime
Votes: 591
Bleach Season 1 Complete 480p x265 Eng Dubbed
Files:
Bleach Season 01 (The Substitute)
  • Read Me.txt (0.2 KB)
  • [DigiMaza] Bleach - 009 - Unbeatable Enemy .mkv (47.4 MB)
  • [DigiMaza] Bleach - 020 - Gin Ichimaru's Shadow .mkv (49.3 MB)
  • [DigiMaza] Bleach - 017 - Ichigo Dies! .mkv (49.3 MB)
  • [DigiMaza] Bleach - 018 - Reclaim! The Power of the Shinigami! .mkv (52.2 MB)
  • [DigiMaza] Bleach - 016 - Encounter, Renji Abarai! .mkv (52.6 MB)
  • [DigiMaza] Bleach - 003 - The Older Brother's Wish, the Younger Sister's Wish .mkv (53.5 MB)
  • [DigiMaza] Bleach - 007 - Greetings from a Stuffed Lion .mkv (53.7 MB)
  • [DigiMaza] Bleach - 010 - Assault on Trip at Sacred Ground! .mkv (53.9 MB)
  • [DigiMaza] Bleach - 014 - Back to Back, a Fight to the Death! .mkv (55.6 MB)
  • [DigiMaza] Bleach - 004 - Cursed Parakeet .mkv (55.8 MB)
  • [DigiMaza] Bleach - 005 - Beat the Invisible Enemy! .mkv (55.9 MB)
  • [DigiMaza] Bleach - 013 - Flower and Hollow .mkv (56.3 MB)
  • [DigiMaza] Bleach - 008 - June 17, Memories in the Rain .mkv (57.2 MB)
  • [DigiMaza] Bleach - 001 - The Day I Became a Shinigami .mkv (58.9 MB)
  • [DigiMaza] Bleach - 002 - The Shinigami's Work .mkv (59.9 MB)
  • [DigiMaza] Bleach - 006 - Fight to the Death! Ichigo vs. Ichigo .mkv (60.6 MB)
  • [DigiMaza] Bleach - 019 - Ichigo Becomes a Hollow! .mkv (62.2 MB)
  • [DigiMaza] Bleach - 012 - A Gentle Right Arm .mkv (64.2 MB)
  • [DigiMaza] Bleach - 011 - The Legendary Quincy .mkv (66.1 MB)
  • [DigiMaza] Bleach - 015 - Kon's Great Plan .mkv (68.3 MB)


You are going to Watch Bleach Episode 265 English dubbed online free episodes with HQ, high quality. Stream Anime Bleach Episode 265 Online English dub Evolution?!

You are going to Watch Bleach Episode 265 English dubbed online free episodes with HQ, high quality. Stream Anime Bleach Episode 265 Online English dub Evolution?! The Menace of the Final Sword Fiend. As all the Shinigamis' Zanpakuto are struggling fighting a Sword Fiend, a flashback of the day before to the events that lead to this battle is shown. Kazeshini is battling with a Sword Fiend who has been cornered by 9th division, as they get separated Kazeshini is about to give the fatal blow the Sword Fiend turns back to a regular sword.

All categories Anime - Anime Music Video - English-translated - ed - Raw Audio - Lossless - Lossy Literature - English-translated . Screenshot 1. pg (6. KiB).

All categories Anime - Anime Music Video - English-translated - ed - Raw Audio - Lossless - Lossy Literature - English-translated - ed - Raw Live Action - English-translated - Idol/Promotional Video - ed - Raw Pictures - Graphics - Photos Software - Applications - Games. Season 01. Shin chan - 01 .mp4 (8. MiB). Shin chan - 02 .

Bleach is an action anime series. The show revolves around Ichigo Kurosaki, a good-hearted 15-year-old high school student who carries the undesired ability to see spirits. Others in his family (two sisters and his father) carry this ability to some extent as well. One evening, he encounters Rukia Kuchiki; a Shinigami, or Death God. It is her job to usher lost spirits to Soul Society, and to also eliminate those which cross over from the Hollow World.

Download Bleach small encoded anime 720p x265 Dual audio english dubbed subbed anime direct via mega AniDL Download Your Favourite Anime & OST in Mega . Only Season 1-4 BDs have been released so far. Video Information. VIDEO: 10bit via x265 @ crf24.

Only Season 1-4 BDs have been released so far. AUDIO: Dual Audio via AAC.

Stream Anime Bleach Episode 265 Online English dub Evolution?! The Menace of the Final Sword Fiend. As all the Shinigamis' Zanpakuto are struggling fighting a Sword Fiend, a flashback of the day before to the events that lead to this battle is shown

Stream Anime Bleach Episode 265 Online English dub Evolution?! The Menace of the Final Sword Fiend.

Bleach - 001 - The Day I Became a Shinigami .mkv (6. Season 02 (Soul Society The Entry). Bleach - 021 - Enter!

The music was composed by Shirō Sagisu, who also composed the music for Neon Genesis Evangelion. A total of fifteen opening themes and thirty ending themes were used throughout the series, featuring a diverse group of Japanese artists. Bleach - 001 - The Day I Became a Shinigami . Bleach - 002 - The Shinigami's Work . Bleach - 021 - Enter!

Dragon Ball Z All Episodes (Japanese+English) Dubbed with English Subbed 480p HD Compressed.

Dragon Ball Z All Episodes (Japanese+English) Dubbed with English Subbed 480p HD Compressed. Episode 01 : The New Threat 480p – GDrive. Episode 02 : Reunions 480p – GDrive. Episode 03 : Unlikely Alliance 480p – GDrive.

EP 265 7 years ago dubbed.

Type: tv. Total: 366. Status: completed. Aired: Oct 5, 2004 to Mar 27, 2012. Premiered: Fall 2004. EP 265 7 years ago dubbed. EP 264 7 years ago dubbed.

Bleach Season 1 Complete 480p x265 Eng Dubbed Download

Quote:

Bleach is an action anime series. The show revolves around Ichigo Kurosaki, a good-hearted 15-year-old high school student who carries the undesired ability to see spirits. Others in his family (two sisters and his father) carry this ability to some extent as well. One evening, he encounters Rukia Kuchiki; a Shinigami, or Death God. It is her job to usher lost spirits to Soul Society, and to also eliminate those which cross over from the Hollow World.

..::File Specs::..
General
Format : Matroska
Format version : Version 4 / Version 2
File size : 53.5 MiB
Duration : 22 min 59 s
Overall bit rate : 325 kb/s
Video
ID : 1
Format : HEVC
Format/Info : High Efficiency Video Coding
Format profile : Main [email protected]@Main
Codec ID : V_MPEGH/ISO/HEVC
Duration : 22 min 59 s
Bit rate : 293 kb/s
Width : 720 pixels
Height : 480 pixels
Display aspect ratio : 4:3
Frame rate mode : Constant
Frame rate : 23.976 (24000/1001) FPS
Original frame rate : 23.976 (23976/1000) FPS
Color space : YUV
Chroma subsampling : 4:2:0
Bit depth : 10 bits
Bits/(Pixel*Frame) : 0.035
Stream size : 48.1 MiB (90%)
Audio
ID : 2
Format : AAC
Format/Info : Advanced Audio Codec
Format profile : HE-AAC / LC
Codec ID : A_AAC
Duration : 22 min 59 s
Bit rate : 30.4 kb/s
Channel(s) : 2 channels
Channel positions : Front: L R
Sampling rate : 48.0 kHz / 24.0 kHz
Frame rate : 23.438 FPS (1024 spf)
Compression mode : Lossy
Delay relative to video : 31 ms
Stream size : 5.01 MiB (9%)
Title : Track 1
Text #1
ID : 3
Format : ASS
Codec ID : S_TEXT/ASS
Codec ID/Info : Advanced Sub Station Alpha
Duration : 22 min 38 s
Bit rate : 13 b/s
Count of elements : 30
Compression mode : Lossless
Stream size : 2.26 KiB (0%)
Title : Signs/Songs Sub
Writing library : Lavc56.0.100 ass
Language : English
Text #2
ID : 4
Format : ASS
Codec ID : S_TEXT/ASS
Codec ID/Info : Advanced Sub Station Alpha
Duration : 22 min 53 s
Bit rate : 88 b/s
Count of elements : 276
Compression mode : Lossless
Stream size : 14.9 KiB (0%)
Title : Full English Sub
Writing library : Lavc56.0.100 ass
Language : English
Text #3
ID : 5
Format : ASS
Codec ID : S_TEXT/ASS
Codec ID/Info : Advanced Sub Station Alpha
Duration : 22 min 53 s
Bit rate : 77 b/s
Count of elements : 276
Compression mode : Lossless
Stream size : 12.9 KiB (0%)
Title : Subtitles SRT
Writing library : Lavc56.0.100 ass
Language : English
..::ScreenShots::..
http://i.imgur.com/VLDrmjd.png
http://i.imgur.com/8oglNzu.png
http://i.imgur.com/5dWgQ2V.png
================================================================
Seed Seed Seed Seed Seed Seed Seed Seed Seed Seed Seed Seed Seed
If You Like Our Work For You, Consider a BTC Donation.
1QDS1uDYov85ZdJeWyxYH4ttXoYvPEyaxe
================================================================

Images:
https://s29.postimg.org/66a9wrizr/bleach_season_1.jpg

Related at Bleach Season 1 Complete 480p x265 Eng Dubbed:
© 2019 www.gphi.it | Contacts | DMCA | Privacy Policy