» » one punch man ova 02 the pupil who is an extremely poor talker english subbed 720p arizone
Language: Japanese
Size: 109.2 MB
Rating: 4.5
Category: Anime
Votes: 908
one punch man ova 02 the pupil who is an extremely poor talker english subbed 720p arizone
Files:
  • One Punch Man OVA 02 - The Pupil Who Is an Extremely Poor Talker [English Subbed] 720p ~ARIZONE.mp4.MP4 (109.2 MB)


Watch and Download One Punch Man English Subbed or Dubbed Episodes Online in High Quality. OVA 2 in the TV Anime Series One Punch Man. bookmark this page now! MP4Upload.

Watch and Download One Punch Man English Subbed or Dubbed Episodes Online in High Quality. MP4Upload HD. subbed 480p. Vidbull HD.

Watch One Punch Man. Season 2 Season 1 Specials Ova Manga. Download this episode: Download. Who Is an Extremely Poor Talker. Shingeki Season 3. 7 Deadly Sins Season 2. Overlord Season 3. Violet Evergarden. Read one punch man manga: Read Now. One Punch Man Specials Episode 2. One Punch Man Specials.

You are going to Watch One Punch Man Special Episode 2 English subbed online free episodes with HQ, high quality. This is a modal window. Beginning of dialog window. Escape will cancel and close the window. White Black Red Green Blue Yellow Magenta Cyan. Stream Anime One Punch Man Special Episode. Opaque Semi-Transparent.

I subbed the ED and added KFX to both the bluray and my subs so see whichever one you like. p 2016 02 01 23h48m46s945

I subbed the ED and added KFX to both the bluray and my subs so see whichever one you like. aecd81426856507 full. p 2016 02 01 23h48m46s945. p 2016 02 01 23h48m38s672.

The Pupil Who Is An Extremely Poor Talker. NC-17. Episode 1: A Shadow That Snuck Up Too Close. Episode 2: The Pupil Who Is An Extremely Poor Talker. Episode 3: The Ninja Who Is Too Complicated. Episode 4: Bang, Who Is Too Overbearing. Episode 5: The Sisters Who Have Too Many Things Happening. Episode 6: The Murder Case That Is Too Impossible.

One Punch Man: Wanpanman (2015– ). 8,4/10. A story about Genos when he meets Don Pacino, a C class wanted criminal and his gang in a warehouse along with man who is being held captive by the gang. Directors: Shingo Natsume, Nobuhiro Mutô. OVA: The Pupil Who Is an Extremely Poor Talker.

One Punch Man OVA - 4 720p x2. .All resources are automatically indexed from the DHT network.6. MB. One-Punch Man - OVA - The Pupil. 13. One Punch Man BD2 - OVA The Pupil. Instead of torrent files, we store meta information only for indexing.

Unofficial: One Punch Man. Fictional character. English (UK) · Русский · Українська · Suomi · Español. Pages liked by this Page. One Punch Man BD2 OVA (SPECIAL EPISODE 2) The Pupil Who Is an Extremely Poor Talker ENGLISH SUB. youtube.

One Punch Man BD2 - OVA - The Pupil Who Is an Extremely Poor Talker.

[spoiler="Subtitle"][center]-
Subtitle by aitaikimochi (Audrey Lamsam)
-

________Watch It Online_______

[/spoiler]




ONE PUNCH MAN

OVA 02[English Subbed]
The Pupil Who Is an Extremely Poor Talker

[b]

General


Format : MPEG-4
Format profile : Base Media
Codec ID : isom
File size : 109 MiB
Duration : 11mn 40s
Overall bit rate : 1 308 Kbps

Video


Format : AVC
Format/Info : Advanced Video Codec
Format profile : [email protected]

Format settings, CABAC : Yes
Format settings, ReFrames : 5 frames
Codec ID : avc1
Codec ID/Info : Advanced Video Coding
Duration : 23mn 24s
Bit rate : 1 114 Kbps
Maximum bit rate : 4 168 Kbps
Width : 1 280 pixels
Height : 720 pixels
Display aspect ratio : 16:9

Frame rate mode : Variable
Frame rate : 23.976 fps
Minimum frame rate : 23.256 fps
Maximum frame rate : 24.390 fps
Color space : YUV
Chroma subsampling : 4:2:0
Bit depth : 8 bits
Scan type : Progressive
Bits/(Pixel*Frame) : 0.036
Stream size : 134 MiB (89%)
Writing library : x264

Audio


Format : AAC
Format/Info : Advanced Audio Codec
Format profile : LC
Codec ID : 40
Duration : 24mn 25s
Bit rate mode : Constant
Bit rate : 192 Kbps
Maximum bit rate : 203 Kbps
Channel(s) : 2 channels[b]
Channel positions : Front: C
[b]Sampling rate : 44.0 KHz
Compression mode : Lossy

Stream size : 8.39 MiB (13%)
Language : Japanese



[/center]

Images:
http://s22.postimg.org/j03lusd4h/ARIZONE.jpg|http://s3.postimg.org/m13o4bjab/INFO_2.jpg|http://s9.postimg.org/u5do23lpr/ARIZONE_2015_11_09_18h26m19s838.jpg|http://s13.postimg.org/5igit2e7b/screenshot.jpg|http://imgchicken.com/images/08718826393900234633.jpg|http://imgchicken.com/images/12422910559936212399.jpg|http://imgchicken.com/images/46917102668529780072.jpg|http://imgchicken.com/images/98371346544556939385.jpg|http://imgchicken.com/images/84434933039513272955.jpg

Related at one punch man ova 02 the pupil who is an extremely poor talker english subbed 720p arizone:
© 2019 www.gphi.it | Contacts | DMCA | Privacy Policy