» » Gantz:O 720p x264 EngDub 2016
Language: English
Size: 1.0 GB
Rating: 4.6
Category: Anime
Votes: 061
Gantz:O 720p x264 EngDub 2016
Files:
{DigiMaza} GantzO (2016)
  • GantzO (2016).mkv (1.0 GB)
  • Read Me.txt (0.4 KB)


Gantz: O (2016) English subtitles srt. Show trailer. Inside, you'll find a. rt file - Gantz.

Gantz: O (2016) English subtitles srt.

English Dolby Digital 192 kb/s 2 channels. Tags: Gantz O p BluRay DD. x264 English Dubbed. Gantz 2010 Japanese BluRay 1080p DD. x264-LooKMaNe. Category: 1080p BluRay x264, Movies 2016, Top IMDB.

Video ID : 1 Format : AVC Format/Info : Advanced Video Codec Format profile : [email protected]

Video ID : 1 Format : AVC Format/Info : Advanced Video Codec Format profile : [email protected] 1 Format settings, CABAC : Yes Format settings, ReFrames : 1 frame Codec ID : V MPEG4/ISO/AVC Duration : 1 h 35 min Bit rate : 1 374 kb/s Width : 1 280 pixels Height : 720 pixels Display aspect ratio : 16:9 Frame rate mode : Constant Frame rate : 2. 76.

What happens if he does not listen? God knows. A word of warning: Gantz is not for the faint-hearted, but neither is it as simple as it looks.

Gantz (Dub); ガンツ. Date aired: 2004. What happens if he does not listen? God knows. Gore, rape, and violence is rampant, as are portrayals of greed, violence, and all the ugliness that one sees in society today.

Gantz: O (720p BluRay - DUAL Audio). DarkStalkers - Night Warriors Revenge ANIME and The ANIMATED Series - 480p DVDRip x264. Gantz: O (2016) - "The 3DCG film will cover the manga's Osaka Ar. Name (Title): GANTZ (2004-2016): Complete Anime Series, 3 Films (2010 Movie, 2011 Another Gantz and EXTENDED Perfect Answer), Gantz O - 480p-720p DUAL Audio x264. Category Type: Anime Series and Movies. txt (. KB). FIST of the NORTH STAR (Hokuto no Ken) - COMPLETE 1984-2015 Series, Movies, OVAs - 480p-720p x264.

Watch Gantz O (2016) full movie online English sub. Synopsis: 17-year-old Masaru Kato’s life ended when he tried to save an old man from a knife-wielding maniac, only to wind up stabbed himself – or so he thought

Watch Gantz O (2016) full movie online English sub. Synopsis: 17-year-old Masaru Kato’s life ended when he tried to save an old man from a knife-wielding maniac, only to wind up stabbed himself – or so he thought. Instead he wakes up in a room with a handful of strangely-dressed people and a large black ball the others call Gantz. They explain to him that he’s been trapped in a survival game: players are teleported to sites where they use black body suits and fantastic weaponry to end the rampages of bizarre alien monsters that have been attacking both Osaka and Tokyo.

mkv is being hosted on dl. eyserver. This file is of MKV file format. Are you sure you want to report the file Gantz. mkv reported successfully, action will be taken soon.

Gantz: O is 2016 year Released Japan Action film. The 3DCG film will cover the manga’s Osaka Arc. Online playWatch online.

Gantz:O Somewhere in Tokyo, there is an area. Gantz:O 2016 HD. Filmlicious is a Free Movies streaming site with zero ads. We let you watch movies online without having to register or paying, with over 10000 movies and TV-Series. Because room is a sphere. Periodically, those who should otherwise have expired are moved into the place. There, the sphere gives them weapons and special suits, and sends them from a mission to kill aliens here on Earth. The rest of the entire globe is essentially unaware for them while these missions happen. These missions are lethal - participants survive them.

Запланировано на 4 июн. 2017 г. Gantz-O 720p BLURAY with CameraFi Live. В этой трансляции отключен чат. Автовоспроизведение Если функция включена, то следующий ролик начнет воспроизводиться автоматически.

Gantz:O Movie [EngDub] 720p x264 Download

Quote:

Somewhere in Tokyo, there is a room. In that room is a black sphere. Periodically, people who should otherwise have died are transferred to the room. There, the sphere gives them special suits and weapons, and sends them out on a mission to kill aliens here on Earth. While these missions take place, the rest of the world is largely oblivious to them. These missions are lethal - few participants survive them. The sphere calls the shots, and it's not the slightest bit nice. Its name... Gantz.

..::File Specs::..
General
Format version : Version 4 / Version 2
File size : 1.05 GiB
Duration : 1 h 35 min
Overall bit rate : 1 568 kb/s
Video
ID : 1
Format : AVC
Format/Info : Advanced Video Codec
Format profile : [email protected]
Format settings, CABAC : Yes
Format settings, ReFrames : 1 frame
Codec ID : V_MPEG4/ISO/AVC
Duration : 1 h 35 min
Bit rate : 1 374 kb/s
Width : 1 280 pixels
Height : 720 pixels
Display aspect ratio : 16:9
Frame rate mode : Constant
Frame rate : 23.976 (24000/1001) FPS
Color space : YUV
Chroma subsampling : 4:2:0
Bit depth : 8 bits
Scan type : Progressive
Bits/(Pixel*Frame) : 0.062
Stream size : 938 MiB (88%)
Default : Yes
Audio
ID : 2
Format : AAC
Format/Info : Advanced Audio Codec
Format profile : LC
Codec ID : A_AAC
Duration : 1 h 35 min
Bit rate : 192 kb/s
Channel(s) : 2 channels
Channel positions : Front: L R
Sampling rate : 44.1 kHz
Frame rate : 43.066 FPS (1024 spf)
Compression mode : Lossy
Stream size : 131 MiB (12%)
..::ScreenShots::..
https://s2.postimg.org/6so9sdpll/vlcsnap-2017-05-30-04h42m06s947.png
https://s2.postimg.org/foz1wbg7t/vlcsnap-2017-05-30-04h42m15s762.png
https://s2.postimg.org/6igr91azd/vlcsnap-2017-05-30-04h42m21s649.png
================================================================
Seed Seed Seed Seed Seed Seed Seed Seed Seed Seed Seed Seed Seed
To direct download this file, Visit.
www.DigiMaza.com
Seed Seed Seed Seed Seed Seed Seed Seed Seed Seed Seed Seed Seed
================================================================

Images:
https://s22.postimg.org/dc6kjqvip/97993303.jpg

Related at Gantz:O 720p x264:
© 2019 www.gphi.it | Contacts | DMCA | Privacy Policy