» » Naruto Shippuuden - 343 mkv 720p ENG-SUBBED GWC
Language: Japanese
Size: 87.7 MB
Rating: 4.5
Category: Anime
Votes: 873
Naruto Shippuuden - 343 mkv 720p ENG-SUBBED GWC
Files:
  • Naruto Shippuuden - 343 [720p] [ENG-SUBBED] [GWC].mkv (87.7 MB)


Details for this torrent. Naruto Shippuuden - 343 .mkv.

Details for this torrent. 0 ('The Edge Of The In Between').

All categories Anime - Anime Music Video - English-translated - ed - Raw Audio - Lossless - Lossy Literature .

All categories Anime - Anime Music Video - English-translated - ed - Raw Audio - Lossless - Lossy Literature - English-translated - ed - Raw Live Action - English-translated - Idol/Promotional Video - ed - Raw Pictures - Graphics - Photos Software - Applications - Games. Category: Anime - ed.

You are going to Watch Naruto Shippuden Episode 138 English dubbed online free episodes with HQ, high quality. Stream Anime Naruto Shippuden Episode 138 Online English dub The End. Sasuke summons his Lightning jutsu, Kirin, and directs it at Itachi. However, Itachi rises again and reveals his final Mangekyo technique, Susano'o. With Sasuke weakened, Orochimaru is able to break free from his restrictive chakra and attempts to take Sasuke's body. However, Itachi retaliates by sealing him away into another dimension, ridding Sasuke of the Curse Mark.

You can watch the Naruto and Naruto Shippuden Dubbed and Subbed Series free. Feel free to cancel before renewal to avoid charges or keep using if you like it and pay monthly subscription after month.

Naruto Shippuuden 343 v2. Naruto Shippuuden 336 v2. 0. Resolution 1280x720.

some line are not sub so i guess gonna learn some japanese tehee. Really good story, and the animations are crazy!!!

some line are not sub so i guess gonna learn some japanese tehee. Really good story, and the animations are crazy!!!

Stream Naruto: Shippuuden English Dubbed and Subbed online for free! . Naruto: Shippuuden Episode 343 English Sub.

Stream Naruto: Shippuuden English Dubbed and Subbed online for free! . Naruto: Shippuuden Episode 342 English Sub. Naruto: Shippuuden Episode 341 English Sub.

Naruto Shippuuden - 343 [720p] [ENG-SUBBED] [GWC]

Naruto Shippuuden Ep:343 - Who Are You





FOLLOW ON FACEBOOK :





General
Format : Matroska
File size : 87.7 MiB
Duration : 21mn 42s
Overall bit rate mode : Variable
Overall bit rate : 565 Kbps
Writing application : mkvmerge v6.6.0 ('The Edge Of The In Between')
Video
Format : AVC
Format profile : [email protected]
Format settings, CABAC : Yes
Format settings, ReFrames : 11 frames
Duration : 21mn 42s
Bit rate : 510 Kbps
Width : 1 280 pixels
Height : 720 pixels
Display aspect ratio : 16:9
Frame rate : 23.976 fps
Stream size : 77.3 MiB (88%)
Title : Naruto Shippuuden - 343 [720p] [ENG-SUBBED] [GWC]
Writing library : x264 core
Audio
Format : Vorbis
Duration : 21mn 42s
Bit rate mode : Variable
Channel(s) : 2 channels
Sampling rate : 44.1 KHz
Stream size : 8.69 MiB
Writing library : aoTuV
Text
Format : UTF-8
Codec ID : S_TEXT/UTF8
Title : [GWC]
Language : English

Images:
http://img560.imageshack.us/img560/2224/narutogwccover.jpg|http://s20.postimg.org/l0qsjtqex/ailscreenscib.png|http://img163.imageshack.us/img163/8710/54100788659511547411.gif|http://img513.imageshack.us/img513/7042/uclr.jpg|http://img163.imageshack.us/img163/8710/54100788659511547411.gif|http://s21.postimg.org/d7ezolr5j/facebook_logo.png|http://img651.imageshack.us/img651/8905/saythanks.gif|http://imageshack.us/a/img27/5276/i57.png|http://img651.imageshack.us/img651/8905/saythanks.gif|http://s20.postimg.org/yqc6oob95/MEDII.jpg

Related at Naruto Shippuuden - 343 mkv:
© 2019 www.gphi.it | Contacts | DMCA | Privacy Policy