» » assassination classroom ansatsu kyoushitsu season 01 ep 01 22 english subbed 720p arizone
Language: Japanese
Size: 2.8 GB
Rating: 4.0
Category: Anime
Votes: 518
assassination classroom ansatsu kyoushitsu season 01 ep 01 22 english subbed 720p arizone
Files:
  • Episode - 01 [English Subbed] 720p ~ARIZONE.mp4 (132.6 MB)
  • Episode - 17 [English Subbed] 720p ~ARIZONE.mp4 (132.5 MB)
  • Episode - 22 [English Subbed] 720p ~ARIZONE.mp4 (132.4 MB)
  • Episode - 20 [English Subbed] 720p ~ARIZONE.mp4 (132.4 MB)
  • Episode - 14 [English Subbed] 720p ~ARIZONE.mp4 (132.4 MB)
  • Episode - 21 [English Subbed] 720p ~ARIZONE.mp4 (132.4 MB)
  • Episode - 15 [English Subbed] 720p ~ARIZONE.mp4 (132.4 MB)
  • Episode - 13 [English Subbed] 720p ~ARIZONE.mp4 (132.4 MB)
  • Episode - 19 [English Subbed] 720p ~ARIZONE.mp4 (132.3 MB)
  • Episode - 10 [English Subbed] 720p ~ARIZONE.mp4 (132.3 MB)
  • Episode - 07 [English Subbed] 720p ~ARIZONE.mp4 (132.3 MB)
  • Episode - 05 [English Subbed] 720p ~ARIZONE.mp4 (132.3 MB)
  • Episode - 09 [English Subbed] 720p ~ARIZONE.mp4 (132.3 MB)
  • Episode - 16 [English Subbed] 720p ~ARIZONE.mp4 (132.3 MB)
  • Episode - 03 [English Subbed] 720p ~ARIZONE.mp4 (132.3 MB)
  • Episode - 04 [English Subbed] 720p ~ARIZONE.mp4 (132.3 MB)
  • Episode - 12 [English Subbed] 720p ~ARIZONE.mp4 (132.3 MB)
  • Episode - 06 [English Subbed] 720p ~ARIZONE.mp4 (132.3 MB)
  • Episode - 02 [English Subbed] 720p ~ARIZONE.mp4 (132.3 MB)
  • Episode - 18 [English Subbed] 720p ~ARIZONE.mp4 (132.3 MB)
  • Episode - 08 [English Subbed] 720p ~ARIZONE.mp4 (132.2 MB)
  • Episode - 11 [English Subbed] 720p ~ARIZONE.mp4 (132.1 MB)
  • ARIZONE.jpg (334.4 KB)
  • please seed.jpg (311.6 KB)


Ansatsu Kyoushitsu Season 2 Episode 22 English Subbed. Assassination Classroom Episode 22 English Subbed.

Ansatsu Kyoushitsu Season 2 Episode 22 English Subbed. Ansatsu Kyoushitsu Season 2 Episode 21 English Subbed. Ansatsu Kyoushitsu Season 2 Episode 20 English Subbed. Assassination Classroom Episode 21 English Subbed. Assassination Classroom Episode 20 English Subbed.

Assassination Classroom (Ansatsu Kyoushitsu). Season 01 EPISODE 01 - 2. .

Torrent: assassination. Assassination Classroom (Ansatsu Kyoushitsu).

Ansatsu Kyoushitsu (TV) 2nd Season; Assassination Classroom Second Season, 暗殺教室 第2. The second season of Ansatsu Kyoushitsu.

Ansatsu Kyoushitsu (TV) 2nd Season; Assassination Classroom Second Season, 暗殺教室 第2期. Date aired: 2016.

Episode - 22 720p ~ARIZONE. Intervention (From - Intervention. FakeTaxi 17 10 01 Maddison Rose XXX 480p MP4-TK (ft. 7.

Watch Assassination Classroom 2 online subbed Episode 1 at AnimeKisa. Second season of Ansatsu Kyoushitsu. The students of class 3-E have a mission: kill their teacher before graduation. He has already destroyed the moon, and has promised to destroy the Earth if he can not be killed within a year. But how can this class of misfits kill a tentacled monster, capable of reaching Mach 20 speed, who may be the best teacher any of them have ever had?

Various formats from 240p to 720p HD (or even 1080p). Other name: 暗殺教室 第2期; Assassination Classroom S2; Ansatsu Kyoushitsu (TV) S2; Assassination Classroom Second Season; Ansatsu Kyoushitsu Season 2; Ansatsu Kyoushitsu Final Season.

Various formats from 240p to 720p HD (or even 1080p). Genres: Action, Comedy, School, Shounen. Date aired: Jan 8, 2016 to Jul 1, 2016. Status: Completed Views: 16,602,175 Bookmark.

English: Assassination Classroom. Duration: 23 minutes. Ansatsu Kyoushitsu 2nd Season. Synonyms: Ansatsu Kyoushitsu. TV - 25 Episodes (Finished Airing) Winter 2016. Ansatsu Kyoushitsu (TV): Deai no Jikan. Special - 1 Episode (Finished Airing) Fall 2014. Ansatsu Kyoushitsu: 365-nichi no Jikan. Movie - 1 Episode (Finished Airing) Fall 2016. Alternative Versions. Ansatsu Kyoushitsu: Jump Festa 2013 Special. Special - 1 Episode (Finished Airing) Fall 2013. recommendation or anime you might like. Great Teacher Onizuka.

Watch Assassination Classroom 2 online subbed Episode 22 at AnimeKisa. But how can this class of misfits kill a tentacled monster, capable of reaching Mach 20 speed, who may be the best teacher any of them have ever had?




[b]
Assassination Classroom
(Ansatsu Kyoushitsu)


Season 01 EPISODE 01 - 22 [ENGLISH Subbed]
[spoiler="General"]

Quote:

[center]
Format : MPEG-4
Format profile : Base Media
Codec ID : isom
File size : 132 MiB
Duration : 23mn 1s
Overall bit rate : 803 Kbps

[/spoiler]
[/spoiler]
[spoiler="VIDEO / AUDIO"]

Quote:


Video
ID : 1
Format : AVC
Format/Info : Advanced Video Codec
Format profile : [email protected]
Format settings, CABAC : Yes
Format settings, ReFrames : 6 frames
Codec ID : avc1
Codec ID/Info : Advanced Video Coding
Duration : 23mn 1s
Bit rate : 700 Kbps
Width : 1 280 pixels
Height : 720 pixels
Display aspect ratio : 16:9
Frame rate mode : Variable
Frame rate : 23.976 fps
Minimum frame rate : 12.048 fps
Maximum frame rate : 24.390 fps
Color space : YUV
Chroma subsampling : 4:2:0
Bit depth : 8 bits
Scan type : Progressive
Bits/(Pixel*Frame) : 0.032
Stream size : 116 MiB (87%)
Writing library : x264 core 142 r2479 dd79a61
Color range : Limited
Color primaries : BT.709
Transfer characteristics : BT.709
Matrix coefficients : BT.709
Audio
ID : 2
Format : AAC
Format/Info : Advanced Audio Codec
Format profile : LC
Codec ID : 40
Duration : 23mn 1s
Bit rate mode : Constant
Bit rate : 93.5 Kbps
Channel(s) : 2 channels
Channel positions : Front: L R
Sampling rate : 44.1 KHz
Compression mode : Lossy
Stream size : 15.4 MiB (12%)
Language : Japanese

[/spoiler][/spoiler]



Images:
http://s22.postimg.org/j03lusd4h/ARIZONE.jpg|http://s3.postimg.org/m13o4bjab/INFO_2.jpg|http://imgchicken.com/images/39941967917941171597.jpg|http://s13.postimg.org/5igit2e7b/screenshot.jpg|http://imgchicken.com/images/28056637856935547525.jpg|http://imgchicken.com/images/20230065841619795515.jpg|http://imgchicken.com/images/03887194064413680996.jpg|http://imgchicken.com/images/20968069987964264339.jpg|http://imgchicken.com/images/01047296100867101552.jpg

Related at assassination classroom ansatsu kyoushitsu season 01 ep 01 22 english subbed 720p arizone:
Comments 1
Tygrarad
Thanks a lot pal, would you please consider uploading the 2nd season? its right here http://kissanime.ru/Anime/Ansatsu-Kyoushitsu-TV-2nd-Season-Dub all episodes and dubbed but its like 250MP per episode XD so i'm looking forward to your awesome coding :)
© 2019 www.gphi.it | Contacts | DMCA | Privacy Policy