» » One Piece - 627 mkv HD 720p ENG SUBBED GWC
Language: Japanese
Size: 75.7 MB
Rating: 4.8
Category: Anime
Votes: 816
One Piece - 627 mkv HD 720p ENG SUBBED GWC
Files:
  • One Piece - 627 [HD 720p] [ENG SUBBED] [GWC].mkv (75.7 MB)


One Piece - Episode 663: Luffy Astonished! The Man Who Inherits Ace's Will!

One Piece - 663 .mkv (8. 4 MB). Download.

Video Format : AVC Format profile : [email protected] Get this torrent Anonymous Download.

You are watching One Piece Episode 627 Online at Animegg. Select a mirror and stream One Piece Episode 627 Subbed & Dubbed in HD. High Quality Anime Online at Animegg.

One Piece 627 Terbaru Streaming Video One Piece 627 Subtitle . SD. Status: Sub Indo ANIMEINDO.

One Piece 627 Terbaru Streaming Video One Piece 627 Subtitle Indonesia Nonton Film One Animeindo Piece 627 Subtitle Indonesia MKV MP4 3GP One Piece 626 Subtitle Indonesia MP4. 480P:Putlocker Tusfiles Solidfiles Mirrorcreator. HD.

Watch One Piece HD Free online NO AD at Kawaiifu. His last words before his death revealed the existence of the greatest treasure in the world, One Piece. It was this revelation that brought about the Grand Age of Pirates, men who dreamed of finding One Piece-which promises an unlimited amount of riches and fame-and quite possibly the pinnacle of glory and the title of the Pirate King. Enter Monkey D. Luffy, a 17-year-old boy who defies your standard definition of a pirate.

You cannot download any of those files from here. rape fantasy 2s, playstation classic 128gb 2s, k-Circle-Man. html 1s, La boîte noire (2005) 2s, title:ANGEL SMALLS 1s, massing my best friend mom 2s, designated survivor 2s, gracel bj 2s, bengali 2s, malwarebytes portable 1s. 03s.

Home One Piece English Subbed One Piece Episode 627 English Subbed. Watch One Piece Episode English Subbed Online at onepiece360. Streaming in high quality and Download anime episodes for free

Home One Piece English Subbed One Piece Episode 627 English Subbed. One Piece Episode 627 English Subbed. by admin January 5, 2014. Streaming in high quality and Download anime episodes for free. Watch One Piece Episode in High HD Quality online on ww. nepiece360. You Are watching One Piece Episode. Episode 627 in the TV Anime Series One Piece.

One Piece - 627 [HD 720p] [ENG SUBBED] [GWC]




FOLLOW ON FACEBOOK :





General
Format : Matroska
File size : 75.7 MiB
Duration : 20mn 42s
Overall bit rate mode : Variable
Overall bit rate : 511 Kbps
Writing application : mkvmerge v6.6.0 ('The Edge Of The In Between')
Video
Format : AVC
Format profile : [email protected]
Format settings, CABAC : Yes
Format settings, ReFrames : 11 frames
Duration : 20mn 42s
Bit rate : 445 Kbps
Width : 1 280 pixels
Height : 720 pixels
Display aspect ratio : 16:9
Frame rate : 29.970 fps
Stream size : 65.9 MiB (87%)
Title : One Piece - 627 [HD 720p] [ENG SUBBED] [GWC]
Audio
Format : Vorbis
Duration : 20mn 42s
Bit rate mode : Variable
Channel(s) : 2 channels
Sampling rate : 44.1 KHz
Stream size : 8.30 MiB
Writing library : aoTuV
Text
Format : UTF-8
Title : [GWC]
Language : English

Images:
http://s20.postimg.org/fl6bb8ghp/OPC.jpg|http://s20.postimg.org/l0qsjtqex/ailscreenscib.png|http://img163.imageshack.us/img163/8710/54100788659511547411.gif|http://img577.imageshack.us/img577/7990/rl28.jpg|http://img163.imageshack.us/img163/8710/54100788659511547411.gif|http://s21.postimg.org/d7ezolr5j/facebook_logo.png|http://img651.imageshack.us/img651/8905/saythanks.gif|http://imageshack.us/a/img16/3442/ncax.gif|http://img651.imageshack.us/img651/8905/saythanks.gif|http://s20.postimg.org/yqc6oob95/MEDII.jpg

Related at One Piece - 627 mkv:
© 2019 www.gphi.it | Contacts | DMCA | Privacy Policy