» » Fairy Tail S2 - 07 mp4 Hi10 720p ENG-SUBBED GWC 182
Language: Japanese
Size: 127.6 MB
Rating: 4.5
Category: Anime
Votes: 177
Fairy Tail S2 - 07 mp4 Hi10 720p ENG-SUBBED GWC 182
Files:
  • Fairy Tail S2 - 07 (182) [Hi10 720p] [ENG-SUBBED] [GWC].mp4 (127.6 MB)


You are going to Watch Fairy Tail 2014 Episode 7 English subbed online free episodes with HQ, high quality. Stream Anime Fairy Tail Episode 182 Online English sub Scorching Earth.

You are going to Watch Fairy Tail 2014 Episode 7 English subbed online free episodes with HQ, high quality. Arcadios pushes Lucy and Yukino safely on top of the ledge, telling them to meet Princess Hisui should they escape. He is then saved from the lava by Horologium. Loke appears with Lucy and Yukino's celestial spirit keys, allowing the girls to fight Uosuke, who alters the environment around them to counter the various spirits at their disposal

Video Format : AVC Format profile : High [email protected]

Video Format : AVC Format profile : High [email protected]

ark:/13960/t0fv1d94r. Internet Archive HTML5 Uploader .

Uploaded: 2014-07-10 17:01:35 GMT. By: canc232.

Various formats from 240p to 720p HD (or even 1080p). Other name: フェアリーテイル; Fairy Tail S2; Fairy Tail 2nd season; Fairy Tail Series 2; Fairy Tail Zero; Fairy Tail (2014). Genres: Action, Adventure, Comedy, Fantasy, Magic, Shounen. Date aired: Apr 5, 2014 to Mar 26, 2016.

Anime Tosho Home Fairy Tail (2014) 51, Fairy Tail of the Dead Meeeeeeeeen . Fairy Tail S2 - 01 (176) - 51 (226). Series (!) Fairy Tail (2014) - Episode 51 (of 102): Fairy Tail of the Dead Meeeeeeeeen.

info Fairy-Tail-S2-12-(187)--mp4 TV shows. to Fairy Tail S2 - 12 (187) .mp4 TV. 1 month. com Fairy Tail S2: 12 (187) . 17 hours. am Fairy Tail S2 - 12 (187) .mp4 Series TV Shows. fatboy slim flac 0s, wanted+dead+or+alive 2s, big tit 1s, Javiera Mena - Complejo de Amor (Digimax Remix) 1s, Cuckold Sessions 0s, sleeping+sleep+xxx+porn 0s, tamil+movie+1080p+5+1+bluray 2s, new hindi movies 1s, I love joyner Lucas 0s, Toni Braxton Westlife 2s.

Direct Download Fairy Tail (2014) (Episode 1 - 102) 720p Complete Anime.

Original Name: FAIRY TAIL (2014) Alternative Name: Fairy Tail 2, Fairy Tail Series 2, FT2, Fairy Tail S2, FAIRY .

Original Name: FAIRY TAIL (2014) Alternative Name: Fairy Tail 2, Fairy Tail Series 2, FT2, Fairy Tail S2, FAIRY TAIL ZERØ, Fairy Tail Zero, フェアリーテイル (2014), フェアリーテイル Aired: Apr 5, 2014 to Mar 26, 2016 Episodes: 102 Categories: Action, Adventure, Comedy, Fantasy, Magic, Shounen Producer: A-1. Pictures, Bridge, Dentsu, TV Tokyo. 0 ('I can't explain') built on Dec 18 2011 18:12:03. Spoiler: Video Information.

Fairy Tail S2 - 07 [Hi10 720p] [ENG-SUBBED] [GWC]

STORYLINE :
A young celestial mage, (Lucy Heartfilia), runs away from home and travels to the land of Fiore to join the magical (Fairy Tail Guild). Along the way, she meets (Natsu Dragneel), a teenage boy looking for his foster parent, a dragon named (Igneel), with his best friend, (Happy) the cat. Shortly after their meeting, Lucy is abducted by (Bora) of Prominence, who was posing as Salamander of Fairy Tail, to be sold as a slave. Natsu rescues her and reveals that he is the real Salamander of Fairy Tail and has the skills of a Dragon Slayer, an ancient fire magic. He offers her membership into the guild, which she gladly accepts, they along with (Erza Scarlet) — Armoured maiden, (Gray Fullbuster) — Ice Maker, and Happy become a team performing various missions offered to the Fairy Tail guild.



FOLLOW ON FACEBOOK :





General
Format : MPEG-4
Format profile : Base Media
File size : 128 MiB
Duration : 21mn 30s
Overall bit rate mode : Variable
Overall bit rate : 829 Kbps
Video
Format : AVC
Format profile : High [email protected]
Format settings, CABAC : Yes
Format settings, ReFrames : 10 frames
Duration : 21mn 30s
Bit rate : 753 Kbps
Maximum bit rate : 5 073 Kbps
Width : 1 280 pixels
Height : 720 pixels
Display aspect ratio : 16:9
Frame rate mode : Variable
Frame rate : 23.976 fps
Stream size : 116 MiB (91%)
Title : Fairy Tail S2 - 07 [Hi10 720p] [ENG-SUBBED] [GWC]
Writing library : x264 core
Audio
Format : AAC
Format profile : HE-AAC / LC
Duration : 21mn 30s
Bit rate mode : Variable
Channel(s) : 2 channels
Sampling rate : 48.0 KHz / 24.0 KHz
Stream size : 11.1 MiB (9%)
Language : Japanese
Text
Format : Timed Text
Title : [GWC]
Language : English

Images:
http://i.imgur.com/oq6zRgU.jpg|http://s20.postimg.org/l0qsjtqex/ailscreenscib.png|http://i.imgur.com/4BUokev.jpg|http://s21.postimg.org/d7ezolr5j/facebook_logo.png|http://i.imgur.com/FQ6bMc5.gif|http://i.imgur.com/9llPOMh.gif|http://i.imgur.com/FQ6bMc5.gif|http://s20.postimg.org/yqc6oob95/MEDII.jpg

Related at Fairy Tail S2 - 07 mp4:
© 2019 www.gphi.it | Contacts | DMCA | Privacy Policy