» » Stand by Me Doraemon 2014 720p EngDub
Language: English
Size: 985.0 MB
Rating: 4.7
Category: Anime
Votes: 997
Stand by Me Doraemon 2014 720p EngDub
Files:
  • (DigiMaza.com) Stand By Me Doraemon (2014).mkv (985.0 MB)


Stand by Me Doraemon 2014 (EngDub) 720p Download

Quote:

In the suburbs of Tokyo some time ago, there lived a clumsy boy about 10 years old. There appeared in front of him named Sewashi, Nobita's descendant of four generations later from the 22nd century, and Doraemon, a 22nd century cat-type caretaker robot who helps people with its secret gadgets.

..::File Specs::..
General
Format : Matroska
Format version : Version 4 / Version 2
File size : 985 MiB
Duration : 1 h 34 min
Overall bit rate : 1 459 kb/s
Video
ID : 1
Format : AVC
Format/Info : Advanced Video Codec
Format profile : [email protected]
Format settings, CABAC : Yes
Format settings, ReFrames : 4 frames
Codec ID : V_MPEG4/ISO/AVC
Duration : 1 h 34 min
Bit rate : 1 280 kb/s
Width : 1 280 pixels
Height : 720 pixels
Display aspect ratio : 16:9
Frame rate mode : Constant
Frame rate : 23.976 (24000/1001) FPS
Color space : YUV
Chroma subsampling : 4:2:0
Bit depth : 8 bits
Scan type : Progressive
Bits/(Pixel*Frame) : 0.058
Stream size : 854 MiB (87%)
Writing library : x264 core 142 r2491 24e4fed
Default : Yes
Forced : No
Color range : Limited
Color primaries : BT.709
Transfer characteristics : BT.709
Matrix coefficients : BT.709
Audio
ID : 2
Format : AAC
Format/Info : Advanced Audio Codec
Format profile : LC
Codec ID : A_AAC
Duration : 1 h 34 min
Bit rate : 192 kb/s
Channel(s) : 2 channels
Channel positions : Front: L R
Sampling rate : 44.1 kHz
Frame rate : 43.066 FPS (1024 spf)
Compression mode : Lossy
Stream size : 130 MiB (13%)
..::ScreenShots::..
https://s1.postimg.org/isbqnsl2n/vlcsnap-2017-07-12-21h47m33s105.png
https://s1.postimg.org/c1vrl9rcf/vlcsnap-2017-07-12-21h47m40s341.png
https://s1.postimg.org/9lty7f99r/vlcsnap-2017-07-12-21h48m11s512.png
================================================================
Seed Seed Seed Seed Seed Seed Seed Seed Seed Seed Seed Seed Seed
To direct download or Watch Online this file, Visit.
http://bit.ly/2qz6ATZ
Seed Seed Seed Seed Seed Seed Seed Seed Seed Seed Seed Seed Seed
================================================================

Images:

Related at Stand by Me Doraemon 2014 720p:
© 2019 www.gphi.it | Contacts | DMCA | Privacy Policy