» » Boruto: Naruto the Movie 720p x264 EngDub
Language: English
Size: 899.9 MB
Rating: 4.7
Category: Anime
Votes: 855
Boruto: Naruto the Movie 720p x264 EngDub
Files:
[DigiMaza] Boruto-Naruto the Movie
  • [DigiMaza] Boruto-Naruto the Movie.mkv (899.9 MB)
  • Read Me.txt (0.5 KB)


Free Download Boruto Naruto The Movie Torrent (HD, MP4, AVI, MKV). Boruto - Naruto the Movie 720p (Dub). Boruto (2015) Naruto the Movie.

Free Download Boruto Naruto The Movie Torrent (HD, MP4, AVI, MKV). So, for those who are looking for Boruto Naruto The Movie, today I am providing top 10 fast speed torrents to help them free download boruto naruto the movie in 720p HD, 1080p Full HD, MP4, MKV, AVI, MOV and many other formats. So, if you want to free download boruto naruto the movie then scroll down and find boruto naruto the movie torrent through the below table. GB.

Naruto Shippuden English Dubbed Movies. Option 3. Naruto Shippuden - 264 - Secrets of the Reanimation Jutsu .mp4. Naruto Shippuden English Subbed Movies.

Boruto: Naruto the Movie – The Day Naruto Became the Hokage Special English Dubbed. Granblue Fantasy The Animation Season 2 Episode 9 English Subbed. Boruto: Naruto Next Generations Episode 2 English Dubbed. Video Errors & Solutions. Attention : About %80 of broken-missing video reports we recieve are invalid so that we believe the problems are caused by you, your computer or something else. Shin Chuuka Ichiban! Episode 9 English Subbed.

Details for this torrent. Boruto: Naruto the Movie (EngDub) 720p x264 Download. Type: Video HD - Movies.

Action, animation, comedy. It’s been some years since the end of the Shinobi War. Naruto Uzumaki is the 7th Hokage of Konohagakure, in this new era. His son, Boruto Uzumaki, will soon enter the Chûnin exams, alongside Sarada Uchiha and the mysterious Mitsuki. Running time: 1:35:00.

Boruto: Naruto the Movie: Why did Naruto suffer so much in this movie? I just completed watching part 1of Naruto in English dub. should I watch Naruto Shippuden in subbed or dubbed?

Boruto: Naruto the Movie: Why did Naruto suffer so much in this movie? I just completed watching part 1of Naruto in English dub. should I watch Naruto Shippuden in subbed or dubbed? Mai John, I watch a lot of anime and read a lot of mangas. Answered Dec 12, 2016 · Author has 55 answers and 12. k answer views. com is the place you can watch boruto naruto the movie sub or dub. k views · Answer requested by. Tracy O'Donnell. Where can I watch Boruto (Naruto the movie) with Japanese audio and not Korean or English dubs?

Boruto: Naruto the Movie opens the doors for a new generation of shinobi to put their abilities to the test, as they face a mysterious enemy and hope to restore peace to Konoha, and the hardships within their own families

Boruto: Naruto the Movie opens the doors for a new generation of shinobi to put their abilities to the test, as they face a mysterious enemy and hope to restore peace to Konoha, and the hardships within their own families.

Boruto: Naruto the Movie (EngDub) 720p x264 Download

Quote:

Boruto is the son of the 7th Hokage Naruto who completely rejects his father. Behind this, he has feelings of wanting to surpass Naruto, who is respected as a hero. He ends up meeting his father's friend Sasuke, and requests to become... his apprentice!? The curtain on the story of the new generation written by Masashi Kishimoto rises!

..::File Specs::..
General
Format                                   : Matroska
Format version                           : Version 4 / Version 2
File size                                : 900 MiB
Duration                                 : 1 h 35 min
Overall bit rate                         : 1 319 kb/s
Video
ID                                       : 1
Format                                   : AVC
Format/Info                              : Advanced Video Codec
Format profile                           : [email protected]
Format settings, CABAC                   : Yes
Format settings, ReFrames                : 1 frame
Codec ID                                 : V_MPEG4/ISO/AVC
Duration                                 : 1 h 35 min
Bit rate                                 : 1 125 kb/s
Width                                    : 1 280 pixels
Height                                   : 692 pixels
Display aspect ratio                     : 1.85:1
Frame rate mode                          : Constant
Frame rate                               : 23.976 (24000/1001) FPS
Color space                              : YUV
Chroma subsampling                       : 4:2:0
Bit depth                                : 8 bits
Scan type                                : Progressive
Bits/(Pixel*Frame)                       : 0.053
Stream size                              : 767 MiB (85%)
Default                                  : Yes
Forced                                   : No
Color range                              : Limited
Color primaries                          : BT.709
Transfer characteristics                 : BT.709
Matrix coefficients                      : BT.709
Audio
ID                                       : 2
Format                                   : AAC
Format/Info                              : Advanced Audio Codec
Format profile                           : LC
Codec ID                                 : A_AAC
Duration                                 : 1 h 35 min
Bit rate                                 : 192 kb/s
Channel(s)                               : 2 channels
Channel positions                        : Front: L R
Sampling rate                            : 44.1 kHz
Frame rate                               : 43.066 FPS (1024 spf)
Compression mode                         : Lossy
Stream size                              : 131 MiB (15%)
..::ScreenShots::..
https://s29.postimg.org/dmwov9wmf/vlcsnap-2017-06-14-03h42m07s802.png
https://s29.postimg.org/c951zyxd3/vlcsnap-2017-06-14-03h42m16s702.png
https://s29.postimg.org/gwb41qkpz/vlcsnap-2017-06-14-03h42m24s369.png
================================================================
Seed Seed Seed Seed Seed Seed Seed Seed Seed Seed Seed Seed Seed
To direct download or Watch Online this file, Visit.
www.DigiMaza.com
Seed Seed Seed Seed Seed Seed Seed Seed Seed Seed Seed Seed Seed
================================================================

Images:

Related at Boruto: Naruto the Movie 720p x264:
© 2019 www.gphi.it | Contacts | DMCA | Privacy Policy