» » Cowboy Bebop The Complete Series BDRip 1080p AC3 AtaraxiaPrime
Language: English
Size: 28.6 GB
Rating: 4.2
Category: Anime
Votes: 560
Cowboy Bebop The Complete Series BDRip 1080p AC3 AtaraxiaPrime
Files:
Season 1
  • E23.Brain Scratch.mkv (1.7 GB)
  • E01.Asteroid Blues.mkv (1.2 GB)
  • E02.Stray Dog Strut.mkv (1.0 GB)
  • E03.Honky Tonk Women.mkv (977.4 MB)
  • E04.Gateway Shuffle.mkv (1.1 GB)
  • E05.Ballad of Fallen Angels.mkv (936.6 MB)
  • E06.Sympathy for the Devil.mkv (1,002.5 MB)
  • E07.Heavy Metal Queen.mkv (1.0 GB)
  • E08.Waltz For Venus.mkv (1.0 GB)
  • E09.Jamming with Edward.mkv (1.2 GB)
  • E10.Ganymede Elegy.mkv (1.0 GB)
  • E11.Toys in the Attic.mkv (1,003.2 MB)
  • E12.Jupiter Jazz, Part I.mkv (935.5 MB)
  • E13.Jupiter Jazz, Part II.mkv (1.6 GB)
  • E14.Bohemian Rhapsody.mkv (968.9 MB)
  • E15.My Funny Valentine.mkv (1.1 GB)
  • E16.Black Dog Serenade.mkv (961.5 MB)
  • E17.Mushroom Samba.mkv (1.0 GB)
  • E18.Speak Like a Child.mkv (1.4 GB)
  • E19.Wild Horses.mkv (1.0 GB)
  • E20.Pierrot Le Fou.mkv (1.1 GB)
  • E21.Boogie-Woogie Feng-Shui.mkv (1.2 GB)
  • E22.Cowboy Funk.mkv (1.2 GB)
  • E24.Hard Luck Woman.mkv (1.2 GB)
  • E25.The Real Folk Blues (1).mkv (1,012.8 MB)
  • E26.The Real Folk Blues (2).mkv (1.0 GB)
  • Readme.txt (7.1 KB)
  • Torrent downloaded from Demonoid.ooo.txt (0.0 KB)


The Bebop crew is just trying to make a buck.

The Bebop crew is just trying to make a buck. This motely lot of intergalactic loners teams up to track down fugitives and turn them in for cold hard cash. The pilot Jet is a bruiser of a brute who can’t wait to collect the next bounty. Audio ID : 3 Format : AC-3 Format/Info : Audio Coding 3 Mode extension : CM (complete main) Format settings, Endianness : Big Codec ID : A AC3 Duration : 24mn 40s Bit rate mode : Constant Bit rate : 448 Kbps Channel(s) : 6 channels Channel positions : Front: L C R, Side: L R, LFE Sampling rate : 4. KHz Frame rate : 3. 50 fps.

Cowboy Bebop 01 - Asteroid Blues. 2 MiB Cowboy Bebop 02 - Stray Dog Strut. 5 MiB Cowboy Bebop 03 - Honkey Tonk Women. 5 MiB Cowboy Bebop 04 - Gateway Shuffle. 2 MiB Cowboy Bebop 05 - Ballad of Fallen Angels. 8 MiB Cowboy Bebop 06 - Sympathy for the Devil. mkv 2284 MiB Cowboy Bebop 07 - Heavy. nirvy at 2014-01-31 20:36 CET

RahXephon . By corocoro in forum Completed Series. Replies: 39. Last Post: March 19th, 2016, 03:22 PM.

Original Name: カウボーイビバップ Alternative Name: CBB, Kaubojus Bebopas, Kaubojus Bibopas, Kovboy Bebop, Kovboj Bebop, Csillagközi fejvadászok, Ковбой Бибоп ТВ, Марсиански каубой, Ковбой Бібоп ТБ, راعي البقر بيبوب, بيبوب راعي البقر, 카우보이 비밥, קאובוי ביבופ, 星际牛仔 Aired: Apr 3, 1998 to Apr 24, 1999 Episodes: 26 Categories: Action, Adventure, Bounty Hunters, Comedy, Detective, Drama . RahXephon .

Cowboy Bebop 04 - Gateway Shuffle. Cowboy Bebop 05 - Ballad of Fallen Angels. Cowboy Bebop 06 - Sympathy for the Devil. Cowboy Bebop 07 - Heavy Metal Queen. Cowboy Bebop 08 - Waltz for Venus. Cowboy Bebop 09 - Jamming with Edward. Cowboy Bebop 10 - Ganymede Elegy. Cowboy Bebop 11 - Toys in the Attic. Cowboy Bebop 12 - Jupiter Jazz (Part 1. kv (. GiB). Cowboy Bebop 13 - Jupiter Jazz (Part 2.

Cowboy Bebop The Complete Series. Action : HD : English. Electric Light Orchestra-Out of the Blue-Live at Wembley (2015). Electro, Techno : Other quality. Explore the far reaches of the galaxy in this undeniably hip series that inspired a generation – and redefined anime as an indisputable art form

The Bebop crew is just trying to make a buck. This motley lot of intergalactic loners teams up to track down fugitives and turn them in for cold hard cash. Join Spike, Jet, Fay, Ed, and Ein as they make their way in the year 2071. Cowboy Bebop, The Complete Series. Explore the far reaches of the galaxy in this undeniably hip series that inspired a generation – and redefined anime as an indisputable art form. The Bebop crew is just trying to make a buck.

Episode 01-26, - Cowboy Bebop Original Soundtracks 1-3, Title(s): Cowboy Bebop, Audio: English, Download . Title(s): Cowboy Bebop Video: - 960x716p/1448x1080p MP4 Audio: English . /5. 1 channel AAC/AC3 Subs: MODIFIED.

Episode 01-26, - Cowboy Bebop Original Soundtracks 1-3, Title(s): Cowboy Bebop, Audio: English, Download: 720p 16. Uchouten Kazoku~The Eccentric Family 01-13 (720p/1080p Blu-ray 8bit AAC MP4) BTOOOM! 01-12 (720p/1080p Blu-ray 8bit AAC MP4) →. (Optional).

Series (!) Cowboy Bebop: Tengoku no Tobira - Complete Movie. Cowboy Bebop The Movie - Knockin' on Heaven's Door (1080p Blu-ray 8bit AC3). mp4 (. 34 GB). Download. Anime Tosho provides a mirror of torrents and is not the source. Uploads are NOT instant, so please wait for them to be processed.

Cowboy Bebop Remix: The Complete Collection (Anime Legends).

COWBOY BEBOP: THE COMPLETE SERIES (BLU RAY)

Explore the far reaches of the galaxy in this undeniably hip series that inspired a generation – and redefined anime as an indisputable art form. The Bebop crew is just trying to make a buck. This motely lot of intergalactic loners teams up to track down fugitives and turn them in for cold hard cash. Spike is a hero whose cool façade hides a dark and deadly past. The pilot Jet is a bruiser of a brute who can’t wait to collect the next bounty. Faye Valentine is a femme fatale prone to breaking hearts and separating fools from their money. Along for the ride are the brilliant, but weird, hacker Ed and a super-genius Welsh Corgi named Ein. On their own, any one of them is likely to get lost in the sprawl of space, but together, they’re the most entertaining gang of bounty hunters in the year 2071.
EPISODE LIST

SEASON 1
E01 Asteroid Blues 1998-10-24
E02 Stray Dog Strut 1998-04-03
E03 Honky Tonk Women 1998-04-10
E04 Gateway Shuffle 1998-11-14
E05 Ballad of Fallen Angels 1998-11-21
E06 Sympathy for the Devil 1998-11-28
E07 Heavy Metal Queen 1998-04-17
E08 Waltz For Venus 1998-04-24
E09 Jamming with Edward 1998-05-01
E10 Ganymede Elegy 1998-05-08
E11 Toys in the Attic 1998-05-15
E12 Jupiter Jazz, Part I 1998-05-22
E13 Jupiter Jazz, Part II 1998-05-29
E14 Bohemian Rhapsody 1998-06-05
E15 My Funny Valentine 1998-06-12
E16 Black Dog Serenade 1999-02-13
E17 Mushroom Samba 1999-02-20
E18 Speak Like a Child 1998-06-19
E19 Wild Horses 1999-03-06
E20 Pierrot Le Fou 1999-03-13
E21 Boogie-Woogie Feng-Shui 1999-03-20
E22 Cowboy Funk 1999-03-27
E23 Brain Scratch 1999-04-03
E24 Hard Luck Woman 1999-04-10
E25 The Real Folk Blues 1999-04-17
E26 The Real Folk Blues 1999-04-24
MEDIA INFO

General
Complete name                            : Season 1E10.Ganymede Elegy.mkv
Format                                   : Matroska
Format version                           : Version 2
File size                                : 1.03 GiB
Duration                                 : 24mn 40s
Overall bit rate                         : 5 997 Kbps
Encoded date                             : UTC 2016-04-11T13:26:12Z
Writing application                      : HandBrake 0.10.5 2016021100
Writing library                          : Lavf55.12.0 / Lavf55.12.0
Video
ID                                       : 1
Format                                   : AVC
Format/Info                              : Advanced Video Codec
Format profile                           : [email protected]
Format settings, CABAC                   : Yes
Format settings, ReFrames                : 16 frames
Codec ID                                 : V_MPEG4/ISO/AVC
Duration                                 : 24mn 40s
Bit rate                                 : 4 982 Kbps
Width                                    : 1 448 pixels
Height                                   : 1 080 pixels
Display aspect ratio                     : 4:3
Frame rate mode                          : Constant
Frame rate                               : 23.976 (24000/1001) fps
Color space                              : YUV
Chroma subsampling                       : 4:2:0
Bit depth                                : 8 bits
Scan type                                : Progressive
Bits/(Pixel*Frame)                       : 0.133
Stream size                              : 879 MiB (83%)
Writing library                          : x264 core 142 r2479 dd79a61
Encoding settings                        : cabac=1 / ref=16 / deblock=1:0:0 / analyse=0x3:0x133 / me=umh / subme=10 / psy=1 / psy_rd=1.00:0.00 / mixed_ref=1 / me_range=24 / chroma_me=1 / trellis=2 / 8x8dct=1 / cqm=0 / deadzone=21,11 / fast_pskip=1 / chroma_qp_offset=-2 / threads=12 / lookahead_threads=2 / sliced_threads=0 / nr=0 / decimate=1 / interlaced=0 / bluray_compat=0 / constrained_intra=0 / bframes=8 / b_pyramid=2 / b_adapt=2 / b_bias=0 / direct=3 / weightb=1 / open_gop=0 / weightp=2 / keyint=240 / keyint_min=24 / scenecut=40 / intra_refresh=0 / rc_lookahead=60 / rc=crf / mbtree=1 / crf=20.0 / qcomp=0.60 / qpmin=0 / qpmax=69 / qpstep=4 / vbv_maxrate=300000 / vbv_bufsize=300000 / crf_max=0.0 / nal_hrd=none / filler=0 / ip_ratio=1.40 / aq=1:1.00
Default                                  : Yes
Forced                                   : No
Color range                              : Limited
Color primaries                          : BT.709
Transfer characteristics                 : BT.709
Matrix coefficients                      : BT.709
Audio #1
ID                                       : 2
Format                                   : AC-3
Format/Info                              : Audio Coding 3
Mode extension                           : CM (complete main)
Format settings, Endianness              : Big
Codec ID                                 : A_AC3
Duration                                 : 24mn 40s
Bit rate mode                            : Constant
Bit rate                                 : 448 Kbps
Channel(s)                               : 6 channels
Channel positions                        : Front: L C R, Side: L R, LFE
Sampling rate                            : 48.0 KHz
Frame rate                               : 31.250 fps (1536 spf)
Compression mode                         : Lossy
Stream size                              : 79.0 MiB (7%)
Title                                    : Surround
Language                                 : English
Default                                  : Yes
Forced                                   : No
Audio #2
ID                                       : 3
Format                                   : AC-3
Format/Info                              : Audio Coding 3
Mode extension                           : CM (complete main)
Format settings, Endianness              : Big
Codec ID                                 : A_AC3
Duration                                 : 24mn 40s
Bit rate mode                            : Constant
Bit rate                                 : 448 Kbps
Channel(s)                               : 6 channels
Channel positions                        : Front: L C R, Side: L R, LFE
Sampling rate                            : 48.0 KHz
Frame rate                               : 31.250 fps (1536 spf)
Compression mode                         : Lossy
Stream size                              : 79.0 MiB (7%)
Title                                    : Surround
Language                                 : Japanese
Default                                  : No
Forced                                   : No
Text
ID                                       : 4
Format                                   : PGS
Codec ID                                 : S_HDMV/PGS
Codec ID/Info                            : Picture based subtitle format used on BDs/HD-DVDs
Language                                 : English
Default                                  : No
Forced                                   : No
SCREENSHOTS







Images:
https://s2.postimg.org/ordfgtfw9/001.png|https://s2.postimg.org/d29fsvjsp/002.png|https://s2.postimg.org/6okcpm76x/003.png|https://s2.postimg.org/k5hb8h22x/004.png|https://s2.postimg.org/lxaa3dt5l/005.png|https://s2.postimg.org/gklfpeaft/Spike-_Pierrot-_Fight.gif

Related at Cowboy Bebop The Complete Series :
© 2019 www.gphi.it | Contacts | DMCA | Privacy Policy