» » Cyberchase S11E01 Watts of Halloween Trouble 1080p PBSK WEB-DL AAC2 0 x264-DJSF
Language: English
Size: 1.1 GB
Rating: 4.2
Category: Anime
Votes: 534
Cyberchase S11E01 Watts of Halloween Trouble 1080p PBSK WEB-DL AAC2 0 x264-DJSF
Files:
  • Cyberchase.S11E01.Watts.of.Halloween.Trouble.1080p.PBSK.WEB-DL.AAC2.0.x264-DJSF.mkv (1.1 GB)


Watts of Halloween Trouble. Matt sets up the farm for his family's annual Halloween Pumpkin Patch Party and he is so excited!

After being warped into Cyberspace from a library computer, Matt leads friends Jackie and Inez as Cybersquad. With live hosts Bianca and Harry, the team must protect Motherboard from the evil Hacker who wants to rule Cyberspace. Using gadgets and following clues, the team solves math mysteries and any other problem that comes their way. Watts of Halloween Trouble. Matt sets up the farm for his family's annual Halloween Pumpkin Patch Party and he is so excited! MediaInfo

After being warped into Cyberspace from a library computer, Matt leads friends Jackie and Inez as Cybersquad.

After being warped into Cyberspace from a library computer, Matt leads friends Jackie and Inez as Cybersquad. Matt sets up the farm for his family's annual Halloween Pumpkin Patch Party and he is so excited! MediaInfo

You cannot download any of those files from here

You cannot download any of those files from here. cs 1 6 full v7 exe 1s, dead heat 1988 480p 0s, Little 1s, javseex cum swallow 1s, kelly minogue 2s, title: Kevin Anderson Clockwork Angels 5 0s, lil durk 0s, 夏美酱 2s, aka-068 1s, wifikill apk wifikill 2s.

Cyberchase S11E01 Watts of Halloween Trouble 1080p PBSK WEB-DL AAC2 0 x264-DJSF. Goosebumps 2 Haunted Halloween p WEB-DL x264 Dual Audio [Hindi - Englis. Posted in Movies - Dubbed Movies.

x264-DJSF torrent or any other torrent from the Video HD - TV shows. Massive Monster Mayhem" is an original sci-fi competition series that combines live action and CGI animation with competition and comedy.

You cannot download any of those files from here. g eazy you don't own me 1s, Love after Loving 1s, Movie Night Moves Abella Danger 2s, brasileirinhas copa 3s, I Feel Bad 2s, vr 2s, Racing Wives 2s, okas-110 1s, czechvr 1s, in flames 2s.

Category: Anime - English-translated. Date: 2019-12-11 19:52 UTC. Submitter: Anonymous. Seeders: 1. Information: No information.

Joined: Feb 11, 2017.

Winx Club - The Mystery of the Abyss (2014). clublandtiger4, Jun 13, 2019, in forum: Cinema Center. Joined: Feb 11, 2017.

2. Resolution 1916x1076.

Cyberchase.S11E01.Watts.of.Halloween.Trouble.1080p.PBSK.WEB-DL.AAC2.0.x264-DJSF
After being warped into Cyberspace from a library computer, Matt leads friends Jackie and Inez as Cybersquad. With live hosts Bianca and Harry, the team must protect Motherboard from the evil Hacker who wants to rule Cyberspace. Using gadgets and following clues, the team solves math mysteries and any other problem that comes their way.
Watts of Halloween Trouble
Matt sets up the farm for his family's annual Halloween Pumpkin Patch Party and he is so excited!
MediaInfo:
Video
ID : 1
Format : AVC
Format/Info : Advanced Video Codec
Format profile : [email protected]
Format settings : CABAC / 3 Ref Frames
Format settings, CABAC : Yes
Format settings, RefFrames : 3 frames
Codec ID : V_MPEG4/ISO/AVC
Duration : 23 min 0 s
Bit rate mode : Constant
Bit rate : 6 500 kb/s
Width : 1 920 pixels
Height : 1 080 pixels
Display aspect ratio : 16:9
Frame rate mode : Constant
Frame rate : 29.970 (30000/1001) FPS
Color space : YUV
Chroma subsampling : 4:2:0
Bit depth : 8 bits
Scan type : Progressive
Bits/(Pixel*Frame) : 0.105
Stream size : 1.04 GiB (99%)
Language : English
Default : Yes
Forced : No
Audio
ID : 2
Format : AAC
Format/Info : Advanced Audio Codec
Format profile : LC
Codec ID : A_AAC-2
Duration : 23 min 0 s
Bit rate : 93.4 kb/s
Channel(s) : 2 channels
Channel positions : Front: L R
Sampling rate : 48.0 kHz
Frame rate : 46.875 FPS (1024 SPF)
Compression mode : Lossy
Delay relative to video : -33 ms
Stream size : 15.4 MiB (1%)
Language : English
Default : Yes
Forced : No

Images:

Related at Cyberchase S11E01 Watts of Halloween Trouble 1080p PBSK WEB-DL AAC2 0 x264-DJSF:
© 2019 www.gphi.it | Contacts | DMCA | Privacy Policy