» » Digimon Adventure Tri 2 480p x264 -ARIZONE English Subbed Determination
Language: Japanese
Size: 269.7 MB
Rating: 4.3
Category: Anime
Votes: 609
Digimon Adventure Tri 2 480p x264 -ARIZONE English Subbed Determination
Files:
  • please seed ch_Determination.jpg (316.5 KB)
  • ARIZONE.jpg (334.4 KB)
  • Digimon Adventure Tri 2 (Determination) Episode 3 [English Subed] 480p x264 ~ARIZONE.mp4 (63.3 MB)
  • Digimon Adventure Tri 2 (Determination) Episode 4 [English Subed] 480p x264 ~ARIZONE.mp4 (66.4 MB)
  • Digimon Adventure Tri 2 (Determination) Episode 1 [English Subed] 480p x264 ~ARIZONE.mp4 (67.7 MB)
  • Digimon Adventure Tri 2 (Determination) Episode 2 [English Subed] 480p x264 ~ARIZONE.mp4 (71.6 MB)


Watch online and download Digimon Adventure tr. Genres: Action, Adventure, Comedy, Drama, Movie. Date aired: Mar 12, 2016.

Watch online and download Digimon Adventure tri. 2: Determination (Sub) anime in high quality. Various formats from 240p to 720p HD (or even 1080p).

Digimon Adventure tri. Create By. Ali Muhammed. Digimon Adventure tri. Chapter 2: Determination.

Watch Streaming Anime Digimon Adventures Tri: Determination English Dubbed online for Free in HD/High Quality. Our players are mobile (HTML5) friendly, responsive with ChromeCast support. You can use your mobile device without any trouble

Watch Streaming Anime Digimon Adventures Tri: Determination English Dubbed online for Free in HD/High Quality. You can use your mobile device without any trouble.

Digimon Adventure Tri 2 (Determination) Episode 2 480p x264 ~ARIZONE. You cannot download any of those files from here

Digimon Adventure Tri 2 (Determination) Episode 2 480p x264 ~ARIZONE. You cannot download any of those files from here. succession 2s, spider man: far from home 1s, del 1s, charmed s01 complete 1s, title:the fanatic 2s, parody episode 3s, citylight 2s, webhd hindi 2s, uktor" style "color: white 2s, advent hymns instrumental 1s. 04s.

Chapter 2: Determination. Release info: Digimon. 2 00:00:58,392 - 00:01:01,312

x264-mSD torrent or any other torrent from the Video TV shows. Come and have fun. -. Digimon.

Chapter 2: Determination Anime For Free? Watch Digimon Adventure tri. Chapter 2: Determination online subbed Episode 4 at AnimeKisa. If you are stuck at this message please try Google Chrome.

EP 4 3 years ago dubbed. EP 3 3 years ago dubbed. EP 2 3 years ago dubbed. EP 1 3 years ago dubbed. Dubbed Anime is an anime streaming video site where you can watch anime in English Dubbed & Subbed.





[b]
Digimon Adventure Tri 2

EPISODE 1-4[ENGLISH Subbed]
Determination

Quote:

[center]
Format : MPEG-4
Format profile : Base Media
Codec ID : isom (isom/iso2/avc1/mp41)
File size : 71.6 MiB
Duration : 24mn 54s
Overall bit rate : 402 Kbps
Movie name : Determination ~ARIZONE

[spoiler="VIDEO / AUDIO"]

Quote:


Video
Format : AVC
Format/Info : Advanced Video Codec
Format profile : [email protected]
Format settings, CABAC : Yes
Format settings, ReFrames : 6 frames
Codec ID : avc1
Codec ID/Info : Advanced Video Coding
Duration : 24mn 53s
Bit rate : 300 Kbps
Width : 854 pixels
Height : 480 pixels
Display aspect ratio : 16:9
Frame rate mode : Variable
Frame rate : 23.976 fps
Minimum frame rate : 23.564 fps
Maximum frame rate : 24.390 fps
Color space : YUV
Chroma subsampling : 4:2:0
Bit depth : 8 bits
Scan type : Progressive
Bits/(Pixel*Frame) : 0.031
Stream size : 53.4 MiB (75%)
Writing library : x264 core 142 r2479 dd79a61
Audio
Format : AAC
Format/Info : Advanced Audio Codec
Format profile : HE-AAC / LC
Codec ID : 40
Duration : 24mn 54s
Bit rate mode : Constant
Bit rate : 96.0 Kbps
Channel(s) : 2 channels
Channel positions : Front: L R
Sampling rate : 44.1 KHz / 22.05 KHz
Frame rate : 21.533 fps (1024 spf)
Compression mode : Lossy
Stream size : 17.1 MiB (24%)
Language : Japanese
Default : Yes

[/spoiler]




Images:
http://s22.postimg.org/j03lusd4h/ARIZONE.jpg|http://s28.postimg.org/d8wv43rql/vlcsnap_2016_03_13_01h04m34s144.jpg|http://s3.postimg.org/m13o4bjab/INFO_2.jpg|http://s13.postimg.org/5igit2e7b/screenshot.jpg|http://s10.postimg.org/nj83mmz6h/vlcsnap_2016_03_13_01h05m33s640.jpg|http://s10.postimg.org/kml2mctcp/vlcsnap_2016_03_13_01h05m19s828.jpg|http://s10.postimg.org/pmiiuayzd/vlcsnap_2016_03_13_01h04m44s551.jpg|http://s28.postimg.org/h6k4tiejx/vlcsnap_2016_03_13_01h08m39s968.jpg|http://imgchicken.com/images/01047296100867101552.jpg

Related at Digimon Adventure Tri 2 480p x264 -ARIZONE:
© 2019 www.gphi.it | Contacts | DMCA | Privacy Policy