» » Hunter X Hunter - 140 mp4 Hi10 720p ENG SUBBED GWC
Language: English
Size: 73.4 MB
Rating: 4.0
Category: Anime
Votes: 232
Hunter X Hunter - 140 mp4 Hi10 720p ENG SUBBED GWC
Files:
  • Hunter X Hunter - 140 [Hi10 720p] [ENG SUBBED] [GWC].mp4 (73.4 MB)


You are currently watching Hunter x Hunter (2011) episode 140 in High Quality. Support us by donating to keep the site up & running.

You are currently watching Hunter x Hunter (2011) episode 140 in High Quality. We will always run free from pop ads and strive to provide the best streaming experience for everyone.

You are watching Hunter x Hunter (2011) Episode 124 Online at Animegg. Select a mirror and stream Hunter x Hunter (2011) Episode 124 Subbed & Dubbed in HD. High Quality Anime Online at Animegg.

Determined to become a professional Hunter willing to stake his life in challenging the unknown, he sets off on a journey and meets fellow Hunter wannabes .

Includes: – Hunter x Hunter 001-148 (Excluding episode 13 & 26) – Hunter x Hunter: Phantom Rouge – Hunter x Hunter: The Last . Psycho-Pass The Movie (720p/1080p Blu-ray 8bit AAC/AC3) Soul Eater Not! (720p/1080p Blu-ray 8bit AAC MP4) →. (Optional).

Includes: – Hunter x Hunter 001-148 (Excluding episode 13 & 26) – Hunter x Hunter: Phantom Rouge – Hunter x Hunter: The Last Mission. Title(s): Hunter x Hunter 2011, Hunter Hunter 2011, Hunter Hunter: Phantom Rouge, Hunter x Hunter: Phantom Rouge, Hunter Hunter: The Last Mission, Hunter x Hunter: The Last Mission Video: - MP4 - MP4 Audio: Japanese.

Hunter X Hunter The Last Mission. ark:/13960/t2q57m28f.

Episode List: Hunter x Hunter. Hunter X Hunter 140 Subtitle Indonesia Animeindo. Status: Sub Indo ANIMEINDO. 480p : Mediafire Tusfiles Solidfiles Mirror. 720p : Mediafire Tusfiles Solidfiles Mirror. 1080p : Mediafire Tusfiles Solidfiles Mirror.

Server Vidstreaming Mp4Upload Estream Thevideo Xstreamcdn. Alternate retelling of the original Hunter x Hunter series. He learns that his fater who he doesn’t remember is an extremely famous man and an amazing hunter. 1 - 50 51 - 100 101 - 148. Hunter X Hunter 2011. Hunter X Hunter 2011; HUNTER HUNTER ハンターハンター. Gon Freece is a boy living on a small island. Gon takes the hunte rexam to seek out his fater, but he soon learns that the challenges he must face will be beyond his imaginations.

Hunter x Hunter (2011). JoJo no Kimyou na Bouken: Diamond wa Kudakenai. Houseki no Kuni (TV). Mahou Shoujo Tokushusen Asuka. Megalo Box. Meiji Tokyo Renka. Doukyonin wa Hiza, Tokidoki, Atama no Ue.

Hunter X Hunter - 140 [Hi10 720p] [ENG SUBBED] [GWC]


STORYLINE :
Gon is a youth who lives on Kujira Isle. His dream is to become a Hunter like his father, to search out lost treasures, artefacts, and mythical creatures.
Determined to become a professional Hunter willing to stake his life in challenging the unknown, he sets off on a journey and meets fellow Hunter wannabes Killua, Kurapika, and Leorio.





FOLLOW ON FACEBOOK :





General
Format : MPEG-4
Format profile : Base Media
File size : 73.4 MiB
Duration : 21mn 5s
Overall bit rate mode : Variable
Overall bit rate : 486 Kbps
Video
Format : AVC
Format profile : High [email protected]
Format settings, CABAC : Yes
Format settings, ReFrames : 10 frames
Duration : 21mn 5s
Bit rate : 410 Kbps
Maximum bit rate : 3 391 Kbps
Width : 1 280 pixels
Height : 720 pixels
Display aspect ratio : 16:9
Frame rate mode : Variable
Frame rate : 23.976 fps
Stream size : 61.9 MiB (84%)
Title : Hunter X Hunter - 140 [Hi10 720p] [ENG SUBBED] [GWC]
Writing library : x264 core 133
Language : English
Audio
Format : AAC
Format profile : HE-AAC / LC
Duration : 21mn 5s
Bit rate mode : Variable
Channel(s) : 2 channels
Sampling rate : 48.0 KHz / 24.0 KHz
Stream size : 10.9 MiB (15%)
Language : English
Text
Format : Timed Text
Title : [GWC]
Language : English

Images:
http://i.imgur.com/TPxM6Wp.jpg|http://i.imgur.com/VZlL078.jpg|http://i.imgur.com/hfRzOJw.gif|http://i.imgur.com/Dt7l5RV.jpg|http://i.imgur.com/hfRzOJw.gif|http://s21.postimg.org/d7ezolr5j/facebook_logo.png|http://i.imgur.com/FQ6bMc5.gif|http://i.imgur.com/9llPOMh.gif|http://i.imgur.com/FQ6bMc5.gif|http://s20.postimg.org/yqc6oob95/MEDII.jpg

Related at Hunter X Hunter - 140 mp4:
© 2019 www.gphi.it | Contacts | DMCA | Privacy Policy