» » Sofia the First S04E22 The Royal School Fair 1080p x264 Phun Psyz
Language: English
Size: 251.4 MB
Rating: 4.9
Category: Anime
Votes: 577
Sofia the First S04E22 The Royal School Fair 1080p x264 Phun Psyz
Files:
  • Sofia the First S04E22 The Royal School Fair 1080p x264 Phun Psyz.mp4 (251.4 MB)


Royal Prep holds a fair for the students. Royal Prep holds a fair for the students to choose what schools to go to next.

Royal Prep holds a fair for the students. Chromecast Player (2. Player).

sofia cartoon Sofia the First Full Episodes. Барби Барби и команда шпионов 2016 - Продолжительность: 1:15:26 Детская сказка Recommended for you. 1:15:26.

x264 torrent or any other torrent from the Video HD - TV shows.

Sofia must decide the right school for her; James fears he may not be talented enough to make it as a knight. Sofia the First S04E15 The Mystic Isles The Great Pretender 1080p x264 Phun Psyz. Source: LAZY (864 MiB). Posted in TV. 185 MB.

The Royal School Fair. Sofia must decide the right school for her; James fears he may not be talented enough to make it as a knight. 4 сезон, 22 серия Вышла 15 Мая 2018 TV-Y 25 мин. Disney Junior.

Sofia the First Season 4 Episode 22 – The Royal School Fair. Watch Sofia the First Season 4 Episode 22 – The Royal School Fair Online with High Quality. If you wish to support us please don't block our Ads!!

Sofia the First Season 4 Episode 22 – The Royal School Fair. Category : Sofia The First.

to Sofi the First S04E22 The Roy l School F ir 1080p x264 Phun Psyz. co Sofia the First S04E22 The Royal School Fair 1080p x264 Phun Psyz Television. am Sofia the First S04E22 The Royal School Fair 1080p x264 Phun Psyz Series TV Shows.

The episode "The Royal School Fair" is pretty awesome, but what if Amber didn't pick Sofia's school for her? .

The episode "The Royal School Fair" is pretty awesome, but what if Amber didn't pick Sofia's school for her? What if Sofia actually picked her school herself. I honestly love the original episode "The Royal School Fair", but I bet many of you Hugfia fans are disappointed that while Hugo made a cameo, he barely interacted with Sofia, only waving at her. Oops! This image does not follow our content guidelines. To continue publishing, please remove it or upload a different image. I got a request from ia132 who asked me to write a remake of "The Royal School Fair", having Hugo make a bigger appearance than in the episode itself.

Title: The Royal School Fair (15 May 2018). Sofia and the other student in Royal Prep have to choose the next school.

www.imdb.com/title/tt6037164/?ref_=ttep_ep22
Sofia must decide the right school for her; James fears he may not be talented enough to make it as a knight.
Source: LAZY (864 MiB)

Format : MPEG-4
Format profile : Base Media / Version 2
Codec ID : mp42 (isom/iso2/avc1/mp41)
File size : 251 MiB
Duration : 23 min 5 s
Overall bit rate mode : Variable
Overall bit rate : 1 523 kb/s
Video
ID : 1
Format : AVC
Format/Info : Advanced Video Codec
Format profile : [email protected]
Format settings : CABAC / 8 Ref Frames
Format settings, CABAC : Yes
Format settings, RefFrames : 8 frames
Codec ID : avc1
Codec ID/Info : Advanced Video Coding
Duration : 23 min 5 s
Bit rate : 1 356 kb/s
Width : 1 920 pixels
Height : 1 080 pixels
Display aspect ratio : 16:9
Frame rate mode : Variable
Frame rate : 23.976 (24000/1001) FPS
Minimum frame rate : 23.974 FPS
Maximum frame rate : 23.981 FPS
Color space : YUV
Chroma subsampling : 4:2:0
Bit depth : 8 bits
Scan type : Progressive
Bits/(Pixel*Frame) : 0.027
Stream size : 224 MiB (89%)
Writing library : x264 core 155 r2893 b00bcaf
Audio
ID : 2
Format : AAC
Format/Info : Advanced Audio Codec
Format profile : LC
Codec ID : mp4a-40-2
Duration : 23 min 5 s
Bit rate mode : Variable
Bit rate : 160 kb/s
Channel(s) : 2 channels
Channel positions : Front: L R
Sampling rate : 48.0 kHz
Frame rate : 46.875 FPS (1024 SPF)
Compression mode : Lossy
Stream size : 26.4 MiB (11%)
Title : Stereo / Stereo
Language : English
Text
Language : English
Default : Yes
Forced : No

Images:
https://extraimage.net/images/2018/05/20/ce1e888162d601580ac2c47f216de1ad.md.png|https://extraimage.net/images/2018/05/20/dd382bd1abc0fc7c439595ab37f1eedd.md.png|https://extraimage.net/images/2018/05/20/72e23e5174a15cbc60c0c5344c36630d.md.png|https://extraimage.net/images/2018/05/20/518aaa6a61886a43de3c2b066c0db44e.md.png|https://extraimage.net/images/2018/05/20/32540546b1299e89a2f0378e2c46fbb6.md.png

Related at Sofia the First S04E22 The Royal School Fair 1080p x264 Phun Psyz:
© 2019 www.gphi.it | Contacts | DMCA | Privacy Policy