» » Battle Spirits Saikyou Ginga Ultimate Zero - Episode 02 SiA 720p
Language: English
Size: 362.5 MB
Rating: 4.0
Category: Anime
Votes: 780
Battle Spirits Saikyou Ginga Ultimate Zero - Episode 02 SiA 720p
Files:
  • [SiMBA] Battle Spirits Episode 2 [720p].mp4 (362.5 MB)


An anime inspired by Bandai's Battle Spirits trading card game and produced by Sunrise.

An anime inspired by Bandai's Battle Spirits trading card game and produced by Sunrise. It is not related to any previous Battle Spirits anime work. Watch Saikyou Ginga Ultimate Zero: Battle Spirits Episodes Online at Animegg. Choose an episode below and start watching Saikyou Ginga Ultimate Zero: Battle Spirits in Subbed & Dubbed HD now. Saikyou Ginga Ultimate Zero: Battle Spirits Episodes. Saikyou Ginga Ultimate Zero: Battle Spirits 49Everyone is Number One!

Download in HD. Saikyou Ginga Ultimate Zero: Battle Spirits.

18 Episode 17 Episode 16 Episode 15 Episode 14 Episode 13 Episode 12 Episode 11 Episode 10 Episode 9 Episode 8 Episode 7 Episode 6 Episode 5 Episode 4 Episode 3 Episode 2 Episode 1. Xstreamcdn. 49 48 47 46 45 44 43 42 41 40 38 37 36 35 34 33 32 31 30 29 28 27 26 25 24 23 21 20 19 18 17 16 15 14 13 12 11 10 9 8 7 6 5 4 3 2 1. Ocloud Server. 49 48 47 46 45 44 43 42 41 40 38 37 36 35 34 33 32 31 30 29 28 27 26 25 24 23 22 21 20 19 18 17 16 15 14 13 12 11 10 9 8 7 6 5 4 3 2 1. Server OpenLoad. Download in HD.

Our player supported Chromecast & Airplay.

He wishes to collect strong cards scattered throughout space, and battle with his rivals unfold. Soon enough, he will discover what happened to his own past. Watch HD Movies Online For Free and Download the latest movies.

Battle Spirits: Saikyo Ginga Ultimate Zero aired on TV Asahi beginning September 22, 2013 and ending September 20, 2014. Saikyou Ginga Ultimate Zero Battle Spirits VS Spicy!

Battle Spirits: Saikyo Ginga Ultimate Zero aired on TV Asahi beginning September 22, 2013 and ending September 20, 2014. It replaced Battle Spirits: Sword Eyes in the 7:00 NichiAsa timeslot. Saikyou Ginga Ultimate Zero Battle Spirits VS Spicy! Curry Prince: Ultimate Collaboration Wars" (最強銀河究極ゼロバトルスピリッツVS激辛!カレー王子究極コラボウォーズ, Saikyō Ginga Arutimetto Zero Batoru Supirittsu Bāsasu Gekikara! Karē Ōji Arutimetto Korabo Wōzu).

Battle Spirits: Saikyō Ginga Ultimate Zero is a 2013 Japanese anime series based on the Battle Spirits Trading Card Game

Battle Spirits: Saikyō Ginga Ultimate Zero is a 2013 Japanese anime series based on the Battle Spirits Trading Card Game. It was produced by Sunrise and Nagoya Broadcasting Network and aired on TV Asahi from September 22, 2013 to September 21, 2014 It replaced Battle Spirits: Sword Eyes in the Nichi Asa Kids Time 7:00 timeslot, and was succeeded by Battle Spirits: Burning Soul. It has not been released outside Japan.

YOU ARE WATCHING: Saikyou Ginga Ultimate Zero: Battle Spirits

YOU ARE WATCHING: Saikyou Ginga Ultimate Zero: Battle Spirits.

go stream tv series Saikyou Ginga Ultimate Zero Battle Spirits

Episode 49 Episode 48 Episode 47 Episode 46 Episode 45 Episode 44 Episode 43 Episode 42 Episode 41 Episode 40 Episode 39 Episode 38 Episode 37 Episode 36 Episode 35 Episode 34 Episode 33 Episode 32 Episode 31 Episode 30 Episode 29 Episode 28 Episode 27 Episode 26 Episode 25 Episode 24 Episode 23 Episode 22 Episode 21 Episode 20 Episode 19 Episode. go stream tv series Saikyou Ginga Ultimate Zero Battle Spirits. Saikyou Ginga Ultimate Zero Battle Spirits 123movies tv show. TAGS: Saikyou Ginga Ultimate Zero Battle Spirits 123 tv series.

Code:


General
Complete name : [SiMBA] Battle Spirits Episode 2 [720p].mp4
Format : MPEG-4
Format profile : Base Media
Codec ID : isom
File size : 362 MiB
Duration : 23mn 49s
Overall bit rate mode : Variable
Overall bit rate : 2 128 Kbps
Writing application : Lavf54.63.104
Video
ID : 1
Format : AVC
Format/Info : Advanced Video Codec
Format profile : [email protected]
Format settings, CABAC : Yes
Format settings, ReFrames : 5 frames
Codec ID : avc1
Codec ID/Info : Advanced Video Coding
Duration : 23mn 49s
Bit rate : 2 000 Kbps
Width : 1 280 pixels
Height : 720 pixels
Display aspect ratio : 16:9
Frame rate mode : Constant
Frame rate : 23.976 fps
Color space : YUV
Chroma subsampling : 4:2:0
Bit depth : 8 bits
Scan type : Progressive
Bits/(Pixel*Frame) : 0.091
Stream size : 340 MiB (94%)
Writing library : x264 core 129 r2250 e403db4
Encoding settings : cabac=1 / ref=5 / deblock=1:0:0 / analyse=0x3:0x113 / me=umh / subme=8 / psy=1 / psy_rd=1.00:0.00 / mixed_ref=1 / me_range=8 / chroma_me=1 / trellis=1 / 8x8dct=1 / cqm=0 / deadzone=21,11 / fast_pskip=1 / chroma_qp_offset=-2 / threads=4 / lookahead_threads=1 / sliced_threads=0 / nr=0 / decimate=1 / interlaced=0 / bluray_compat=0 / constrained_intra=0 / bframes=3 / b_pyramid=2 / b_adapt=2 / b_bias=0 / direct=3 / weightb=1 / open_gop=0 / weightp=2 / keyint=240 / keyint_min=23 / scenecut=40 / intra_refresh=0 / rc_lookahead=50 / rc=2pass / mbtree=1 / bitrate=2000 / ratetol=1.0 / qcomp=0.60 / qpmin=0 / qpmax=69 / qpstep=4 / cplxblur=20.0 / qblur=0.5 / vbv_maxrate=3000 / vbv_bufsize=4000 / nal_hrd=none / ip_ratio=1.40 / aq=1:1.00
Audio
ID : 2
Format : AAC
Format/Info : Advanced Audio Codec
Format profile : LC
Codec ID : 40
Duration : 23mn 49s
Duration_LastFrame : -1ms
Bit rate mode : Variable
Bit rate : 128 Kbps
Maximum bit rate : 3 000 Kbps
Channel(s) : 2 channels
Channel positions : Front: L R
Sampling rate : 44.1 KHz
Compression mode : Lossy
Delay relative to video : 83ms
Stream size : 21.8 MiB (6%)
Images:

Related at Battle Spirits Saikyou Ginga Ultimate Zero - Episode 02:
© 2019 www.gphi.it | Contacts | DMCA | Privacy Policy