» » Hunter x Hunter Episode 129-kaizokush 480p H-S 2011
Language: Japanese
Size: 62.4 MB
Rating: 4.8
Category: Anime
Votes: 638
Hunter x Hunter Episode 129-kaizokush 480p H-S 2011
Files:
  • Hunter x Hunter Episode 129.mp4 (62.4 MB)


Category - Hunter x Hunter 2011.

Category - Hunter x Hunter 2011. Download - Here 480p Mp4. Report a Broken Video Via - Report Here! Arigato!! Info: if the video is not working, please disable any adblock and reload the page. Previous Episode Next Episode. You are now Watching Hunter x Hunter 2011 Episode 129 in English Subtitles. Watch Hunter x Hunter 2011 Episode 129 English Subbed Online. or Download Hunter x Hunter 2011 Episode 129 episodes in High Quality for free at AnimeGET.

Download online anime Hunter X Hunter Episode 129 subtitle Indonesia terbaru: nonton streaming sub indo. Hunter X Hunter Episode 129. MKV ( 70 Mb ) mkv 480p. Hunter X Hunter (2011) 129. Episode Hunter X Hunter 129 ini menceritakan tentang pertarungan Killua melawan Pouf. . ( 90 Mb ) mkv 720p.

Hunter x Hunter Episode 12. p4 (6. MB). files.

You are currently watching Hunter x Hunter (2011) episode 129 in High Quality. Support us by donating to keep the site up & running.

Охотник х Охотник (2011–2014). Meanwhile, the other hunters learn, much to their horror, that the king is still alive and is returning to the palace

Охотник х Охотник (2011–2014). Season: 1. OR. Year: 2016. Meanwhile, the other hunters learn, much to their horror, that the king is still alive and is returning to the palace. Formidable Enemy and Clear Objective. As the Hunter Association tries in vain to help Gon, Killua secures a deal with his family to allow Alluka out of the mansion so that she can treat Gon. S1, Ep141.

Hunter Hunter is an anime television series that aired from 2011 to 2014 based on Yoshihiro Togashi's Hunter Hunter manga

Hunter Hunter is an anime television series that aired from 2011 to 2014 based on Yoshihiro Togashi's Hunter Hunter manga. He learns that his father, Ging, is a legendary "Hunter", an individual who has proven themselves an elite member of humanity.

Claiming that he intends to rescue her, Pouf convinces her to resist against Killua to give him an opening to kill her instead, but Killua realizes this and successfully protects her from him. Meanwhile, Gon and Pitou are about to reach Kite's location.

Anime-Sharing Forum Forum Downloads and Requests New Releases Hunter x Hunter Episode 129 (HS) 720p. Results 1 to 1 of 1. Thread: Hunter x Hunter Episode 129 (HS) 720p.

General

Complete name : Hunter x Hunter Episode 129.mp4
Format : MPEG-4
Format profile : Base Media / Version 2
Codec ID : mp42
File size : 62.4 MiB
Duration : 23mn 37s
Overall bit rate mode : Variable
Overall bit rate : 369 Kbps
Encoded date : UTC 2014-05-14 01:49:38
Tagged date : UTC 2014-05-14 02:10:33
Writing application : HandBrake 0.9.9 2013052900

Video

ID : 1
Format : AVC
Format/Info : Advanced Video Codec
Format profile : [email protected]
Format settings, CABAC : Yes
Format settings, ReFrames : 6 frames
Codec ID : avc1
Codec ID/Info : Advanced Video Coding
Duration : 23mn 37s
Bit rate : 237 Kbps
Width : 848 pixels
Height : 476 pixels
Display aspect ratio : 16:9
Frame rate mode : Variable
Frame rate : 23.976 fps
Minimum frame rate : 23.974 fps
Maximum frame rate : 23.981 fps
Color space : YUV
Chroma subsampling : 4:2:0
Bit depth : 8 bits
Scan type : Progressive
Bits/(Pixel*Frame) : 0.024
Stream size : 40.0 MiB (64%)
Encoded date : UTC 2014-05-14 01:49:38
Tagged date : UTC 2014-05-14 02:10:31
Color primaries : BT.709
Transfer characteristics : BT.709
Matrix coefficients : BT.709

Audio

ID : 2
Format : AAC
Format/Info : Advanced Audio Codec
Format profile : LC
Codec ID : 40
Duration : 23mn 37s
Bit rate mode : Variable
Bit rate : 128 Kbps
Maximum bit rate : 278 Kbps
Channel(s) : 2 channels
Channel positions : Front: L R
Sampling rate : 44.1 KHz
Compression mode : Lossy
Stream size : 21.6 MiB (35%)
Encoded date : UTC 2014-05-14 01:49:38
Tagged date : UTC 2014-05-14 02:10:30

Screenshots:




Images:
http://yuq.me/users/27/165/EeSh4T5s2D.png|http://yuq.me/users/27/165/hY4zg5x9VS.png|http://yuq.me/users/27/165/TLdVFjgUSa.png

Related at Hunter x Hunter Episode 129-kaizokush:
© 2019 www.gphi.it | Contacts | DMCA | Privacy Policy