» » The Adventures Of Tintin CAM XviD-BBnRG-filebox1 2011
Language: English
Size: 1.3 GB
Rating: 4.4
Category: Anime
Votes: 756
The Adventures Of Tintin CAM XviD-BBnRG-filebox1 2011
Files:
  • The Adventures Of Tin Tin (2011) CAM XviD BBnRG.avi (1.3 GB)


The Adventures of Tintin 2011 DVDRip XviD-MAXSPEED.

The Adventures of Tintin 2011 DVDRip XviD-MAXSPEED. 4 years ago. 1. 2. KB. يست ترجمتي و لكن قمت بتعديل التوقيت فقط. Arabic. 31KB. Legenda The Tozz & MisterNauta. Brazillian Portuguese.

Action, adventure, animation. Director: Steven Spielberg. Starring: Andy Serkis, Cary Elwes, Daniel Craig and others

Action, adventure, animation. Starring: Andy Serkis, Cary Elwes, Daniel Craig and others. Intrepid young reporter, Tintin and his loyal dog, Snowy are thrust into a world of high adventure when they discover a ship carrying an explosive secret. As Tintin is drawn into a centuries-old mystery, Ivan Ivanovitch Sakharine suspects him of stealing a priceless treasure

The Adventures of Tintin In theaters 12/21. Related PagesSee All. Tintin Fan Page. 4,236 Followers · Fictional Character.

The Adventures of Tintin In theaters 12/21. 1,152,016 Followers · Public Figure. The Three Musketeers. 504,212 Followers · Movie. Journey to the Center of the Earth. 1,003,333 Followers · Movie. Journey 2: The Mysterious Island. 1,015,225 Followers · Movie. 3,737,789 Followers · Movie. Gulliver’s Travels Movie.

Racing to uncover the secrets of a sunken ship, Tintin and his loyal dog Snowy embark on a journey around th. .Contact The Adventures of Tintin on Messenger. See actions taken by the people who manage and post content. Page created – 6 December 2010.

This is a list of videos and DVDs produced for The Adventures of Tintin, the comics series by Belgian cartoonist Hergé.

The Adventures of Tintin: Secret of the Unicorn" is the first in the series of 3D motion capture films based on the iconic character created by Georges Remi, better known to the world by his pen name "Herge" and is due for release in 2011

The Adventures of Tintin: Secret of the Unicorn" is the first in the series of 3D motion capture films based on the iconic character created by Georges Remi, better known to the world by his pen name "Herge" and is due for release in 2011.


Genre: Animation | Action | Adventure | Family | Mystery
Year: 2011
Country: USA | New Zealand
Runtime: 107 min
Director: Steven Spielberg
Cast: Jamie Bell, Andy Serkis and Daniel Craig
.: Plot :.
Having bought a model ship,the Unicorn,for a pound off a market stall Tintin is initially puzzled that the sinister Mr. Sakharine should be so eager to buy it from him,resorting to murder and kidnapping Tintin - accompanied by his marvellous dog Snowy - to join him and his gang as they sail to Morocco on an old cargo ship. Sakharine has bribed the crew to revolt against the ship's master,drunken Captain Haddock,but Tintin,Snowy and Haddock escape,arriving in Morocco at the court of a sheikh,who also has a model of the Unicorn. Haddock tells Tintin that over three hundred years earlier his ancestor Sir Francis Haddock was forced to scuttle the original Unicorn when attacked by a piratical forebear of Sakharine but he managed to save his treasure and provide clues to its location in three separate scrolls,all of which were secreted in models of the Unicorn. Tintin and Sakharine have one...
Rating: 6.4 (122 votes)
Format : AVI
Format/Info : Audio Video Interleave
File size : 1.32 GiB
Duration : 1h 39mn
Overall bit rate : 1 894 Kbps
Writing library : VirtualDub build 32842/release
Video
ID : 0
Format : MPEG-4 Visual
Format profile : [email protected]
Format settings, BVOP : No
Format settings, QPel : No
Format settings, GMC : No warppoints
Format settings, Matrix : Default (H.263)
Codec ID : XVID
Codec ID/Hint : XviD
Duration : 1h 39mn
Bit rate : 1 500 Kbps
Width : 720 pixels
Height : 304 pixels
Display aspect ratio : 2.35:1
Frame rate : 25.000 fps
Color space : YUV
Chroma subsampling : 4:2:0
Bit depth : 8 bits
Scan type : Progressive
Compression mode : Lossy
Bits/(Pixel*Frame) : 0.274
Stream size : 1.04 GiB (79%)
Writing library : XviD 57
Audio
ID : 1
Format : AC-3
Format/Info : Audio Coding 3
Mode extension : CM (complete main)
Codec ID : 2000
Duration : 1h 39mn
Bit rate mode : Constant
Bit rate : 384 Kbps
Channel(s) : 6 channels
Channel positions : Front: L C R, Side: L R, LFE
Sampling rate : 44.1 KHz
Bit depth : 16 bits
Compression mode : Lossy
Stream size : 274 MiB (20%)
Alignment : Split accross interleaves
Interleave, duration : 40 ms (1.00 video frame)
Interleave, preload duration : 500 ms
http://www.imdb.com/title/tt0983193/
Encoder: FridayToker :pimp:
Source(s): 720p ILLUMINATI (thanks)
Another fine release from BBnRG.

Images:
http://www.coverdude.com/covers/the-adventures-of-tintin-2011-ws-r2-front-cover-81970.jpg

Related at The Adventures Of Tintin CAM XviD-BBnRG-filebox1:
© 2019 www.gphi.it | Contacts | DMCA | Privacy Policy