» » Wolf Children - Ame e Yuki i bambini lupo DVDrip XviD - Italian Jpn Ac3 5 1 Sub ita MIRCrew 2012
Language: Italian
Size: 1.8 GB
Rating: 4.1
Category: Anime
Votes: 016
Wolf Children - Ame e Yuki i bambini lupo DVDrip XviD - Italian Jpn Ac3 5 1 Sub ita MIRCrew 2012
Files:
  • Wolf Children (2012).Ita.Jpn.sub.ita.MIRCrew.avi (1.8 GB)
  • Wolf Children (2012).Ita.Jpn.sub.ita.MIRCrew.ita.idx (270.6 KB)
  • Wolf Children (2012).Ita.Jpn.sub.ita.MIRCrew.ita.sub (24.8 MB)
  • Wolf Children (2012).Ita.Jpn.sub.ita.MIRCrew.srt (0.1 KB)


Wolf Children: Ame e Yuki i bambini lupo (Italian). Волчьи дети Амэ и Юки (Russian)

Related anime: Wolf Children: Ame & Yuki (manga) (adaptation). Alternative title: Ame & Yuki – Die Wolfskinder (German). Wolf Children: Ame e Yuki i bambini lupo (Italian). Волчьи дети Амэ и Юки (Russian). おかみこどもの雨と雪 (Japanese). 2 French subtitled 1 Korean subtitled 1 Polish subtitled 1 French dubbed.

General Complete name : Wolf Children (2012). MIRCrewWolf Children (2012). 1 (build 2178/release) Writing library : VirtualDubMod build 2178/release

About halfway through, the movie begins to deal more with the children, Ame and Yuki, and about how they are growing up and finding their own paths in life - something that Hana wanted to give them when she decided to move them out of the big city and to the countryside. All I will say is that the siblings' paths diverge; they both make different choices. One is not better than the other, and neither are bad choices. In this half of the movie, you also start getting some feeling for what parents experience when their children grow up.

Wolf Children (2012). MIRCrew 13 torrent download locations. to Wolf Children - Ame e Yuki i bambini lupo (2012). XviD - Italian Jp. c3. Download Direct Wolf Children (2012). com Wolf Children (2012). org Wolf Children - Ame e Yuki i bambini lupo (2012). XviD - I Video Movies. com Wolf Children - Ame e Yuki i bambini lupo (2012) DVDrip XviD - Italian Jpn Ac.

Wolf Children - Ame e Yuki i bambini lupo", di Mamoru Hosoda, disponibile su NETFLIX (ww. etflix.

La giovane Hana и una ragazza allegra e determinata, che studia in un'universitа alla periferia di Tokyo e si mantiene svolgendo diversi lavori part-time. Un giorno, in un'aula dell'universitа, Hana nota uno studente che le sembra completamente diverso da tutti gli altri. Incuriosita, lo segue e gli propone di studiare assieme a lei. Ma il giovane nasconde uno sconvolgente segreto.

Download full movie Wolf Children - Ame e Yuki i bambini lupo (2012). Subtitles (from opensubtitles.

880859 MiB) Note: Analysis not complete. Duration: 01:57:04 (7023. 510887 s) Container: AVI OpenDML AVI has index: Yes Total tracks: 2 Track nr. 0: video Track nr. 1: audio Junk: VirtualDub build 0/release. Download full movie Wolf Children - Ame e Yuki i bambini lupo (2012).

Extra Details: The correct italian title is "Wolf Children - Ame e Yuki i bambini lupo". b go back (or to parent when applicable). (right arrow) go to next season.

Wolf Children - Ame e Yuki i bambini lupo .DVDrip.XviD - Italian Jpn.Ac3.5.1.Sub.ita.MIRCrew


NO FOUND ONLY ORIGINAL RELEASE

Wolf Children - Ame e Yuki i bambini lupo



Titolo originale おおかみこどもの雨と雪
Lingua originale Giapponese
Paese di produzione Giappone
Anno 2012
Durata 117 minuti
Colore colore
Audio sonoro
Genere animazione
Regia Mamoru Hosoda
Soggetto Mamoru Hosoda
Sceneggiatura Mamoru Hosoda, Satoko Okudera
Produttore Yuichiro Saito
Casa di produzione Studio Chizu, Madhouse
Distribuzione (Italia) Dynit
Art director Hiroshi Ohno
Character design Yoshiyuki Sadamoto
Musiche Takagi Masakatsu
Tema musicale Okaasan no Uta (おかあさんの唄?) di Ann Sally

Doppiatori italiani
Antonella Baldini: Hana
David Chevalier: Uomo lupo
Emanuela Ionica: Yuki
Alessio Puccio: Ame
Barbara Sacchelli: Ame bambino
Leonardo Caneva: Sohei Fujii
Antonella Rinaldi: Sig.ra Fujii
Stefano Billi: Maestro Tanabe
Bruno Alessandro: Nirasaki
Dante Biagioni: Yamaoka
Giovanni Petrucci: Hosogawa
Gabriele Lopez: Kuroda
Mauro Magliozzi: Tendo

Hana è una studentessa di diciannove anni che all'università incontra un ragazzo di cui si innamora. Questi le rivela di essere un uomo lupo, l'ultimo discendente dell'ormai estinto lupo giapponese. Ciononostante, i due si mettono insieme, e quando Hana scopre di essere incinta non si fa visitare per la paura che il bambino nasca lupo. Nove mesi dopo nasce Yuki (letteralmente, "neve") in una giornata nevosa,.......

College student Hana falls in love with another student who turns out to be a werewolf, who dies in an accident after their second child. Hana moves to the rural countryside where her husband grew up to raise her two werewolf children.................






[spoiler]
General
Complete name : Wolf Children .Ita.Jpn.sub.ita.MIRCrewWolf Children .Ita.Jpn.sub.ita.MIRCrew.avi
Format : AVI
Format/Info : Audio Video Interleave
File size : 1.80 GiB
Duration : 1h 52mn
Overall bit rate : 2 294 Kbps
Writing application : VirtualDubMod 1.5.4.1 (build 2178/release)
Writing library : VirtualDubMod build 2178/release
Video
ID : 0
Format : MPEG-4 Visual
Format profile : Advanced [email protected]
Format settings, BVOP : No
Format settings, QPel : No
Format settings, GMC : No warppoints
Format settings, Matrix : Custom
Codec ID : XVID
Codec ID/Hint : XviD
Duration : 1h 52mn
Bit rate : 1 389 Kbps
Width : 720 pixels
Height : 416 pixels
Display aspect ratio : 16:9
Frame rate : 25.000 fps
Color space : YUV
Chroma subsampling : 4:2:0
Bit depth : 8 bits
Scan type : Progressive
Compression mode : Lossy
Bits/(Pixel*Frame) : 0.186
Stream size : 1.09 GiB (61%)
Writing library : XviD 64
Audio #1
ID : 1
Format : AC-3
Format/Info : Audio Coding 3
Mode extension : CM (complete main)
Codec ID : 2000
Duration : 1h 52mn
Bit rate mode : Constant
Bit rate : 448 Kbps
Channel(s) : 6 channels
Channel positions : Front: L C R, Side: L R, LFE
Sampling rate : 48.0 KHz
Bit depth : 16 bits
Compression mode : Lossy
Stream size : 361 MiB (20%)
Alignment : Split accross interleaves
Interleave, duration : 96 ms (2.40 video frames)
Interleave, preload duration : 96 ms
Language : Italian
Audio #2
ID : 2
Format : AC-3
Format/Info : Audio Coding 3
Mode extension : CM (complete main)
Codec ID : 2000
Duration : 1h 52mn
Bit rate mode : Constant
Bit rate : 448 Kbps
Channel(s) : 6 channels
Channel positions : Front: L C R, Side: L R, LFE
Sampling rate : 48.0 KHz
Bit depth : 16 bits
Compression mode : Lossy
Stream size : 361 MiB (20%)
Alignment : Split accross interleaves
Interleave, duration : 96 ms (2.40 video frames)
Interleave, preload duration : 96 ms
Language : Japanese
[/spoiler]

Images:
http://s19.postimg.org/w9ws99nmb/banner_mircrew_original_2.png|http://s10.postimg.org/evpmpiqft/wol.png|http://www.userlogos.org/files/logos/Sucka/imdb_new.png|http://s19.postimg.org/vz5tzn42b/1_scheda.png|http://s19.postimg.org/q8fnlww2b/1_cast.png|http://s19.postimg.org/okgi79i6r/1_trama.png|http://s19.postimg.org/fzn6g380j/1_story.png|https://extraimage.net/images/2015/07/15/vlcsnap-2015-07-15-16h52m28s247.png|https://extraimage.net/images/2015/07/15/vlcsnap-2015-07-15-16h52m32s37.png|https://extraimage.net/images/2015/07/15/vlcsnap-2015-07-15-16h52m40s118.png|http://img153.imageshack.us/img153/3158/restateinseedblood.gif|http://imgur.com/lvhU6.gif|http://s19.postimg.org/a2jaz9qvn/1_dati.png

Related at Wolf Children - Ame e Yuki i bambini lupo DVDrip XviD - Italian Jpn Ac3 5 1 Sub ita MIRCrew:
© 2019 www.gphi.it | Contacts | DMCA | Privacy Policy