» » Pokemon 7 - Fratello Dallo Spazio DivX - Ita
Language: Italian
Size: 786.5 MB
Rating: 4.3
Category: Anime
Votes: 748
Pokemon 7 - Fratello Dallo Spazio DivX - Ita
Files:
  • Pokemon-OAV-07-Fratello-Dallo-Spazio.avi (786.5 MB)


Aldi dallo Spazio, Ravenna.

Aldi dallo Spazio, Ravenna. CommunitySee all. 3,593 people like this. 3,687 people follow this. AboutSee all. +39 329 204 0492.

Pokémon: Fratello dallo Spazio Pokémon Destiny Deoxys: Fratello dello Spazio. Pokémon 7: Alma Gémea. Покемон: Судьба Деоксиса. Pokemonai: Deoksio Likimas. Pokémon: Skjebnens Deoxys. Latin American Spanish. El Destino de Deoxys.

Titolo Italiano: Pokemon - Fratello dallo spazio (il destino dei Deoxys) Titolo Originale: Gekijōban Poketto Monsutā Adobansu Jenerēshon Rekkū no Hōmonsha Deokishisu Nazione: Giappone Stagione: OAV 07 Anno: 2004 Numero episodi: 1 Durata episodio: 100 min. circa. Durante una spedizione al polo nord il Professor Lund assiste ad un fenomeno di aurora polare. Poco dopo un meteorite colpisce il ghiaccio, causando un impatto che spaventa un branco di Walrein e Sealeo che caricano Tory, figlio del Professor Lund.

Similar items to consider. Pokemon - Fratello Dello Spazio - (Italian Import) DVD NEW. £. 6.

org Pokemon Movie 7: Fratello dallo spazio anime Pokemon Movie 07 - Original Soundtrack. 18 - Fushiginao Tomodachi Soreha.

org Pokemon Movie 7: Fratello dallo spazio anime. org Pokemon Movie 07 - Fratello dallo spazio Other. eu Pokemon Movie 07 - Fratello dallo spazio video. Pokemon Movie 07 - Original Soundtrack.

Pokémon: Fratello dello spazio. Netherlands (dubbed version). Pokémon 7: Doel Deoxys. Pokémon: Cel - Deoxys. Pokémon 7: Destino Deoxys. Pokémon: Dagen D för Deoxys.

Pokemon OAV 07
Fratello dallo spazio


Titolo Italiano: Pokemon - Fratello dallo spazio (il destino dei Deoxys)
Titolo Originale: Gekijōban Poketto Monsutā Adobansu Jenerēshon Rekkū no Hōmonsha Deokishisu
Nazione: Giappone
Stagione: OAV 07
Anno: 2004
Numero episodi: 1
Durata episodio: 100 min. circa
Trama/b]
Durante una spedizione al polo nord il Professor Lund assiste ad un fenomeno di aurora polare. Poco dopo un meteorite colpisce il ghiaccio, causando un impatto che spaventa un branco di Walrein e Sealeo che caricano Tory, figlio del Professor Lund. Dopo aver tratto in salvo il bambino, dal luogo dell'impatto emerge Deoxys. Il Pokémon sonda il terreno e recupera un cristallo coperto dalla neve.
Deoxys viene tuttavia attaccato dal Pokémon leggendario Rayquaza, che si è sentito minacciato dall'intrusione del Pokémon nello strato di ozono, e perde il cristallo verde. Dopo un'intensa battaglia che causa la distruzione delle apparecchiature del Professor Lund, Deoxys viene colpito da un attacco di Rayquaza e si dissolve in un cristallo che finisce nelle profondità marine. Ritenendosi vincitore, il Pokémon Stratosfera ritorna a difendere la Terra.
[b]Scheda tecnica del file

Dimensione: 785 MB circa
Serie ed episodi: OAV - 07
Fonte: TVrip
Video Codec: MPEG-4 Visual (DivX 5)
Video BitRate: 870 Kbps
Audio: 224 Kbps, 48.0 KHz, 16 bits, 2 channels, AC-3
Risoluzione: 640*350 (16:9), at 24 fps
Screenshot


Screenshot non riscalato del video

Report tecnico del file[/b]
Format : AVI
Format/Info : Audio Video Interleave
File size : 786 MiB
Duration : 1h 39mn
Overall bit rate : 1 103 Kbps
Writing application : VirtualDubMod 1.6.0.0 SURROUND (build 2560/release)
Writing library : VirtualDubMod build 2560/release
Video
ID : 0
Format : MPEG-4 Visual
Format settings, BVOP : No
Format settings, QPel : No
Format settings, GMC : No warppoints
Format settings, Matrix : Default (H.263)
Codec ID : DX50
Codec ID/Hint : DivX 5
Duration : 1h 39mn
Bit rate : 870 Kbps
Width : 640 pixels
Height : 350 pixels
Display aspect ratio : 16:9
Frame rate : 23.976 fps
Color space : YUV
Chroma subsampling : 4:2:0
Bit depth : 8 bits
Scan type : Progressive
Compression mode : Lossy
Bits/(Pixel*Frame) : 0.162
Stream size : 620 MiB (79%)
Writing library : DivX 5.2.1 (WaffleDay) (UTC 2004-09-08)
Audio
ID : 1
Format : AC-3
Format/Info : Audio Coding 3
Mode extension : CM (complete main)
Codec ID : 2000
Duration : 1h 39mn
Bit rate mode : Constant
Bit rate : 224 Kbps
Channel(s) : 2 channels
Channel positions : Front: L R
Sampling rate : 48.0 KHz
Bit depth : 16 bits
Compression mode : Lossy
Stream size : 160 MiB (20%)
Alignment : Split accross interleaves
Interleave, duration : 42 ms (1.00 video frame)
Interleave, preload duration : 500 ms

Images:
http://img714.imageshack.us/img714/6466/pk07.jpg|http://img851.imageshack.us/img851/9496/scr1g.png|http://img856.imageshack.us/img856/7907/scr2v.png|http://img156.imageshack.us/img156/6100/schermata3n.png

Related at Pokemon 7 - Fratello Dallo Spazio :
© 2019 www.gphi.it | Contacts | DMCA | Privacy Policy