» » Sofia the First S04E13 Pirated Away 1080p x264 Phun Psyz
Language: English
Size: 195.0 MB
Rating: 4.6
Category: Anime
Votes: 407
Sofia the First S04E13 Pirated Away 1080p x264 Phun Psyz
Files:
  • Sofia the First S04E13 Pirated Away 1080p x264 Phun Psyz.mp4 (195.0 MB)


Sofia the First S04E15 The Mystic Isles The Great Pretender 1080p x264 Phun Psyz.

While sailing to see a meteor shower, Sofia, Amber and Miranda are kidnapped by pirates! Source: LAZY (864 MiB). Sofia the First S04E15 The Mystic Isles The Great Pretender 1080p x264 Phun Psyz. Posted in TV. 185 MB.

AAC torrent or any other torrent from the Video TV shows.

AAC torrent or any other torrent from the Video HD - TV shows.

Episode 13. Strictly Come Dancing – Season 1. Episode 13. Ore wo Suki nano wa Omae dake ka yo. Strictly Come Dancing – Season 17. Episode 17. Casualty – Season 34. Episode 12. The X Factor: Celebrity – Season 1. Episode 6. Lets Play Soccer. Episode 7.

Sofia, is a little girl with a commoner's background until her mom marries the King and suddenly she is royalty

Sofia, is a little girl with a commoner's background until her mom marries the King and suddenly she is royalty Watch sofia the first season 4 2017 online free on Xmovies8, xmovies8. tv official site moved to xmovies8.

x265 Size, x264 Compatibility, HD Quality
http://www.imdb.com/title/tt7448248/?ref_=ttep_ep13
While sailing to see a meteor shower, Sofia, Amber and Miranda are kidnapped by pirates!
Source: LAZY (864 MiB)


Format : MPEG-4
Format profile : Base Media / Version 2
Codec ID : mp42 (isom/iso2/avc1/mp41)
File size : 195 MiB
Duration : 23 min 5 s
Overall bit rate mode : Variable
Overall bit rate : 1 181 kb/s
Writing application : HandBrake 1.0.7 2017040900
Video
ID : 1
Format : AVC
Format/Info : Advanced Video Codec
Format profile : [email protected]
Format settings : CABAC / 8 Ref Frames
Format settings, CABAC : Yes
Format settings, RefFrames : 8 frames
Codec ID : avc1
Codec ID/Info : Advanced Video Coding
Duration : 23 min 5 s
Bit rate : 1 014 kb/s
Width : 1 920 pixels
Height : 1 080 pixels
Display aspect ratio : 16:9
Frame rate mode : Variable
Frame rate : 23.976 (24000/1001) FPS
Minimum frame rate : 23.974 FPS
Maximum frame rate : 23.981 FPS
Color space : YUV
Chroma subsampling : 4:2:0
Bit depth : 8 bits
Scan type : Progressive
Bits/(Pixel*Frame) : 0.020
Stream size : 167 MiB (86%)
Writing library : x264 core 148 r2708 86b7198
Color range : Limited
Color primaries : BT.709
Transfer characteristics : BT.709
Matrix coefficients : BT.709
Audio
ID : 2
Format : AAC
Format/Info : Advanced Audio Codec
Format profile : LC
Codec ID : mp4a-40-2
Duration : 23 min 5 s
Bit rate mode : Variable
Bit rate : 160 kb/s
Channel(s) : 2 channels
Channel positions : Front: L R
Sampling rate : 48.0 kHz
Frame rate : 46.875 FPS (1024 SPF)
Compression mode : Lossy
Stream size : 26.4 MiB (14%)
Title : Stereo / Stereo
Language : English
Default : Yes
Alternate group : 1
Text
ID : 3
Format : Timed Text
Muxing mode : sbtl
Codec ID : tx3g
Duration : 22 min 30 s
Bit rate mode : Variable
Bit rate : 136 b/s
Stream size : 22.5 KiB (0%)
Language : English
Default : Yes
Forced : No
Alternate group : 3

Images:
http://torrent-stats.info/e3a1/352eaa399.png|https://extraimage.net/images/2017/10/27/7608bcedf015f234ea7736516ce3f5c6.jpg|https://extraimage.net/images/2017/10/27/c4c1ada39b6961b2b91a49ab494c9573.jpg|https://extraimage.net/images/2017/10/27/46936d60a384bab477cf2b46bede0af4.jpg|https://extraimage.net/images/2017/10/27/604afa1fe95b5c52f161d742e1d00172.jpg|https://extraimage.net/images/2017/10/27/2bb7c2f2b3d3077dc60347d4e6522604.jpg|https://extraimage.net/images/2017/10/27/f35c5fd3f6e8d30e21a7e3457b769e82.jpg

Related at Sofia the First S04E13 Pirated Away 1080p x264 Phun Psyz:
© 2019 www.gphi.it | Contacts | DMCA | Privacy Policy