» » Shokugeki no Souma San no Sara - 04 mkv TriForce 1080p
Language: English
Size: 1.1 GB
Rating: 4.7
Category: Anime
Votes: 393
Shokugeki no Souma San no Sara - 04 mkv TriForce 1080p
Files:
  • [TriForce] Shokugeki no Souma San no Sara - 04 [1080p].mkv (1.1 GB)


Episode . kv (38. MiB).

Episode . 2017-10-27 04:35 UTC. thx. bigkal.

Shokugeki no Soma Season 4 has officially been confirmed by a recent . Watch GLORIOUS AINZ-SAMA WITH 1080P in third season of Overlord.

Shokugeki no Soma Season 4 has officially been confirmed by a recent announcement. Called Shokugeki no Soma: Shin no Sara (Food Wars! The Fourth Plate), the new anime is scheduled to premiere in October 2019, the fall 2019 anime season. The Fourth Plate BD, Watch Shokugeki no Souma Season 4 BD, Shokugeki no Souma Season 4 Blue ray. Related series.

the mandalorian 2019 s01e01 chapter one 1080p dsnyp webrip. 11 minutes ago. Tags. yify italian 720p 1080p Hindi 480p french x264.

Shokugeki no Soma S4 - 0. kv. Category: Anime - English-translated. net/horriblesubs) Join us in our IRC channel for XDCC downloads. Shokugeki no Soma S4 - 0. kv (. GiB).

Shokugeki no Souma 2nd Season, Shokugeki no Soma 2, Food Wars: Shokugeki . The second season of Shokugeki no Souma.

Staff Genres : Ecchi, School, Shounen Duration : 24. min. per episode. Jashin-chan Dropkick (2018)(Episode 12).

Anime Tosho Home Shokugeki no Souma: San no Sara 4, Pride of Young Lions . Shokugeki no Souma San no Sara - 0.

Thanks for downloading, Enjoy your Anime (o˘◡˘o)

General
Unique ID : 226863683021797132751578205284385400718 (0xAAAC5B259B060E86BFB55D4F64E7A78E)
Complete name : [TriForce] Shokugeki no Souma San no Sara - 04 [1080p].mkv
Format : Matroska
Format version : Version 4 / Version 2
File size : 1.06 GiB
Duration : 24 min 12 s
Overall bit rate : 6 242 kb/s
Encoded date : UTC 2017-10-25 01:13:50
Writing application : mkvmerge v15.0.0 ('Duel with the Devil') 64-bit
Writing library : libebml v1.3.5 + libmatroska v1.4.5
Video
ID : 1
Format : AVC
Format/Info : Advanced Video Codec
Format profile : [email protected]
Format settings : CABAC / 4 Ref Frames
Format settings, CABAC : Yes
Format settings, RefFrames : 4 frames
Codec ID : V_MPEG4/ISO/AVC
Duration : 24 min 12 s
Bit rate : 6 015 kb/s
Width : 1 920 pixels
Height : 1 080 pixels
Display aspect ratio : 16:9
Frame rate mode : Constant
Frame rate : 23.976 (24000/1001) FPS
Standard : NTSC
Color space : YUV
Chroma subsampling : 4:2:0
Bit depth : 8 bits
Scan type : Progressive
Bits/(Pixel*Frame) : 0.121
Stream size : 1.02 GiB (96%)
Default : Yes
Forced : No
Color range : Limited
Color primaries : BT.709
Transfer characteristics : BT.709
Matrix coefficients : BT.709
Audio
ID : 2
Format : AAC
Format/Info : Advanced Audio Codec
Format profile : LC
Codec ID : A_AAC-2
Duration : 24 min 12 s
Bit rate : 221 kb/s
Channel(s) : 2 channels
Channel positions : Front: L R
Sampling rate : 48.0 kHz
Frame rate : 46.875 FPS (1024 SPF)
Compression mode : Lossy
Stream size : 38.3 MiB (4%)
Language : Japanese
Default : Yes
Forced : No
Text #1
ID : 3
Format : ASS
Codec ID : S_TEXT/ASS
Codec ID/Info : Advanced Sub Station Alpha
Duration : 24 min 10 s
Bit rate : 218 b/s
Count of elements : 547
Compression mode : Lossless
Stream size : 38.6 KiB (0%)
Language : English
Default : Yes
Forced : No
Text #2
ID : 4
Format : ASS
Codec ID : S_TEXT/ASS
Codec ID/Info : Advanced Sub Station Alpha
Duration : 24 min 10 s
Bit rate : 167 b/s
Count of elements : 472
Compression mode : Lossless
Stream size : 29.7 KiB (0%)
Language : Latin
Default : No
Forced : No
Text #3
ID : 5
Format : ASS
Codec ID : S_TEXT/ASS
Codec ID/Info : Advanced Sub Station Alpha
Duration : 24 min 10 s
Bit rate : 168 b/s
Count of elements : 472
Compression mode : Lossless
Stream size : 29.8 KiB (0%)
Language : Spanish
Default : No
Forced : No
Text #4
ID : 6
Format : ASS
Codec ID : S_TEXT/ASS
Codec ID/Info : Advanced Sub Station Alpha
Duration : 24 min 9 s
Bit rate : 160 b/s
Count of elements : 417
Compression mode : Lossless
Stream size : 28.4 KiB (0%)
Language : French
Default : No
Forced : No
Text #5
ID : 7
Format : ASS
Codec ID : S_TEXT/ASS
Codec ID/Info : Advanced Sub Station Alpha
Duration : 24 min 10 s
Bit rate : 184 b/s
Count of elements : 512
Compression mode : Lossless
Stream size : 32.6 KiB (0%)
Language : Italian
Default : No
Forced : No
Text #6
ID : 8
Format : ASS
Codec ID : S_TEXT/ASS
Codec ID/Info : Advanced Sub Station Alpha
Duration : 24 min 10 s
Bit rate : 173 b/s
Count of elements : 464
Compression mode : Lossless
Stream size : 30.7 KiB (0%)
Language : German
Default : No
Forced : No
Text #7
ID : 9
Format : ASS
Codec ID : S_TEXT/ASS
Codec ID/Info : Advanced Sub Station Alpha
Duration : 24 min 10 s
Bit rate : 214 b/s
Count of elements : 531
Compression mode : Lossless
Stream size : 38.0 KiB (0%)
Language : Portuguese
Default : No
Forced : No
Text #8
ID : 10
Format : ASS
Codec ID : S_TEXT/ASS
Codec ID/Info : Advanced Sub Station Alpha
Duration : 24 min 10 s
Bit rate : 253 b/s
Count of elements : 522
Compression mode : Lossless
Stream size : 44.9 KiB (0%)
Language : Arabic
Default : No
Forced : No

Images:

Related at Shokugeki no Souma San no Sara - 04 mkv:
© 2019 www.gphi.it | Contacts | DMCA | Privacy Policy