» » Naruto Shippuuden Episode 266 - With English Subtitle Mp4 Jazz_Singh
Language: Hindi
Size: 54.2 MB
Rating: 4.1
Category: Anime
Votes: 043
Naruto Shippuuden Episode 266 - With English Subtitle Mp4 Jazz_Singh
Files:
  • Naruto Shippuden Episode 266 - With English Subtitle.mp4 (54.2 MB)


Watch Naruto Online for Free. You can find all Naruto Shippuden Episodes English Subbed and Naruto Shippuden related content at WatchNaruto. Naruto: Shippuuden Movie 3.

Watch Naruto Online for Free. Naruto: Shippuuden Movie 4. Naruto: Shippuuden Movie 5. Naruto: Shippuuden Movie 6.

Naruto Shippuden Episode 267 Konoha's Genius Strategist. Naruto Shippuden Episode 266 The First and Last Opponent. Naruto Shippuden Episode 265 An Old Nemesis Returns. Naruto Shippuden Episode 264 Secrets of the Reanimation Jutsu.

Watch Naruto Shippuuden Episode 266 Online in High Quality for Free at AnimeRush. Naruto Shippuuden is the continuation of the original animated TV series Naruto. The story revolves around an older and slightly more matured Uzumaki Naruto and his quest to save his friend Uchiha Sasuke from the grips of the snake-like Shinobi, Orochimaru.

Watch Naruto Shippuden online for free. Plot: Naruto Shippuden is a continuation of original series Naruto. Naruto Shippuuden Episode 500 English Dubbed. Naruto Shippuden Episode 266 English Dubbed. Naruto Shippuden Episode 265 English Dubbed. After 2 and a half years of training with his master, Naruto finally returns to his village of Konoha. Naruto is now older and more mature than before. Naruto Shippuuden Episode 499 English Dubbed. Naruto Shippuuden Episode 498 English Dubbed. Naruto Shippuuden Episode 497 English Dubbed. Naruto Shippuden Episode 264 English Dubbed.

Subtitles for Naruto. Follows the struggles of three young ninjas - Naruto Uzumaki, Sasuke Uchiha and Sakura Haruno - as they go through their training. Genders: Action, Adventure, Animation.

Episode 266: The First and Last Opponent Subtitled. Kakashi and his unit devise a strategy to take on the Kekkei Genkai shinobi, but it’s foiled by Kabuto, who uses the Reanimation Jutsu to summon the most powerful members of the Seven Ninja Swordsmen of the Mist. Watch Naruto Shippuuden Episode 266 English Subbed Online. Watch Naruto Shippuuden Episode 266 online. Naruto Shippuuden Anime - Watch Naruto Shippuuden Episode 266 English Subbed Naruto Shippuuden Episode 266 released!

Category - Naruto Shippuden. You are now Watching Naruto Shippuuden Episode 266 in English Subtitles.

Category - Naruto Shippuden. or Download Naruto Shippuuden Episode 266 episodes in High Quality for free at AnimeGET.

Naruto Subtitles This torrent contain Naruto and Naruto Shippuuden subtitles. Many times people ask only for subtitles and could not find them separately, either they are part of larger torrent which went dead(no seeders) or they are softsubbed in episodes and you have to download whole episode to extract them, I found these subtitles 4 years ago on torrent, and thought today why not seed them, but unfortunately could not find the. original torrent to seed, so I created new torrent.

The episodes for the twelfth season of the anime series Naruto: Shippuden are based on Part II for Masashi Kishimoto's manga series. It was directed by Hayato Date, and produced by Pierrot and TV Tokyo. The season follows Naruto Uzumaki controlling the power of the Nine-Tails at the start of the Fourth Shinobi World War, episodes 257 to 260 being a recap of the events of the Part I storyline.

Naruto Shippuden Episode 266


Title:The First and Last Opponent
Release date :June 7th, 2012
Audio language :Japanese
SubTitle language : English

General
Format : MPEG-4
Format profile : Base Media / Version 2
Codec ID : mp42
File size : 54.2 MiB
Duration : 23mn 9s
Overall bit rate mode : Variable
Overall bit rate : 327 Kbps
Encoded date : UTC 2012-06-07 10:58:29
Tagged date : UTC 2012-06-07 11:00:56
Writing application : HandBrake rev3736 2011020499
Video
Format : AVC
Format/Info : Advanced Video Codec
Format profile : [email protected]
Format settings, CABAC : No
Format settings, ReFrames : 3 frames
Codec ID : avc1
Codec ID/Info : Advanced Video Coding
Duration : 23mn 9s
Bit rate mode : Variable
Bit rate : 245 Kbps
Width : 640 pixels
Height : 358 pixels
Display aspect ratio : 16:9
Frame rate mode : Constant
Frame rate : 15.000 fps
Color space : YUV
Chroma subsampling : 4:2:0
Bit depth : 8 bits
Scan type : Progressive
Bits/(Pixel*Frame) : 0.071
Stream size : 40.7 MiB (75%)
Writing library : x264 core 112
Audio
Format : AAC
Format/Info : Advanced Audio Codec
Format profile : LC
Codec ID : 40
Duration : 23mn 9s
Bit rate mode : Variable
Bit rate : 79.7 Kbps
Maximum bit rate : 136 Kbps
Channel(s) : 2 channels
Channel positions : Front: L R
Sampling rate : 44.1 KHz
Compression mode : Lossy
Stream size : 13.2 MiB (24%)
Encoded date : UTC 2012-06-07 10:58:29
Tagged date : UTC 2012-06-07 11:00:56

Images:
http://i.imgur.com/jE103.png|http://i.imgur.com/8B5Op.jpg|http://i.imgur.com/SqTqu.png|http://i.imgur.com/QMSEu.gif|http://i.imgur.com/ctI4t.gif|http://i.imgur.com/beorv.png

Related at Naruto Shippuuden Episode 266 - With English Subtitle Mp4 :
© 2019 www.gphi.it | Contacts | DMCA | Privacy Policy