» » Blood+ Season 1 480p Cursator Blood Plus Ep 1-13 Subbed
Language: Japanese
Size: 677.2 MB
Rating: 4.8
Category: Anime
Votes: 955
Blood+ Season 1 480p Cursator Blood Plus Ep 1-13 Subbed
Files:
  • Blood+ Ep 01.mp4 (62.5 MB)
  • Blood+ Ep 02.mp4 (62.5 MB)
  • Blood+ Ep 13.mp4 (58.9 MB)
  • Blood+ Ep 03.mp4 (58.5 MB)
  • Blood+ Ep 06.mp4 (52.3 MB)
  • Blood+ Ep 10.mp4 (49.8 MB)
  • Blood+ Ep 11.mp4 (49.6 MB)
  • Blood+ Ep 05.mp4 (49.5 MB)
  • Blood+ Ep 09.mp4 (47.8 MB)
  • Blood+ Ep 04.mp4 (47.5 MB)
  • Blood+ Ep 07.mp4 (46.8 MB)
  • Blood+ Ep 12.mp4 (45.4 MB)
  • Blood+ Ep 08.mp4 (44.9 MB)
Screenshots
  • Blood+ 5.png (338.9 KB)
  • Blood+ 2.png (247.9 KB)
  • Blood+ 3.png (214.1 KB)
  • Blood+ 4.png (210.9 KB)
  • Blood+ 1.png (109.3 KB)
  • Blood+ 6.png (92.8 KB)


Blood+ Episode 01. Report.

Come and download blood plus absolutely for free. Blood+ (Blood Plus) Season 1 (Ep 1-13 Subbed) 480p Cursator Posted by Cursator in Anime Anime. 0. Blood+ (Blood Plus) Season 3 (Ep 26-38) 480p Cursator Posted by Cursator in Anime Anime. Blood+ (Blood Plus) Season 4 (Ep 39-50) 480p Cursator Posted by Cursator in Anime Anime.

All The Episodes of Gantz Season 1 (Ep 1-13) at 480p Video Quality . thanks for torrenting.

All The Episodes of Gantz Season 1 (Ep 1-13) at 480p Video Quality :) Please seed after you download -. Info -. General . com ). Thank you very much :) vinz at 2013-01-17 10:48 CET: thanks for torrenting.

download film 13 reasons why season 1 sub Indonesia. download 13 reason why sub indo

Nontonin Film 13 Reasons Why Season 1 subtitle indonesia, Streaming Movie Drama 13 Reasons Why Season 1 Sub Indo, Download Movie 13 Reasons Why Season 1 Hardsub. download film 13 reasons why season 1 sub Indonesia. download 13 reason why sub indo. 13 reasons why season 1 sub indo.

Blood+ anime (series) (60MB) 480p Anime serie for DirectDownload and Torrent Download from AnimeOut. Synonyms: Blood Plus. Gallery Fake (2005).

Ep 1. Sukisho Special. SUB. Ep 13. Maria-sama ga Miteru 4th Season. Ep 24. Initial D: Fourth Stage. Geneshaft. Ep 26. Mushishi. Coppelion.

Across the country, vampires have come "out of the coffin" after the invention of mass-produced synthetic blood. Season 1 Episode 2. The First Taste. Bill returns Sookie's favor by rescuing her from the Rattrays' revenge; later, Bill joins Sookie for a nocturnal sojourn. Season 1 Episode 3. Mine. Foiled in their attempt to "glamour" Sookie, vampires Malcolm, Liam and Diane make a hasty retreat after Bill lays claim to the waitress. Season 1 Episode 4. Escape From Dragon House.

Castle Rock: Season 2. The Flash: Season . The Flash: Season 6. Into The Dark: Season 2. Mr. Robot: Season .

All the episode of Blood+ Season 1 (Ep 1-13) at 480p Video quality.
Please seed after you download :)
-
Info
-
General

Format : MPEG-4
Format profile : Base Media
Codec ID : isom
File size : 62.5 MiB
Duration : 23mn 55s
Overall bit rate mode : Variable
Overall bit rate : 365 Kbps
Video

ID : 1
ID : 1
Format : AVC
Format/Info : Advanced Video Codec
Format profile : [email protected]
Format settings, CABAC : Yes
Format settings, ReFrames : 16 frames
Codec ID : avc1
Codec ID/Info : Advanced Video Coding
Duration : 23mn 55s
Bit rate mode : Variable
Bit rate : 330 Kbps
Maximum bit rate : 3 689 Kbps
Width : 512 pixels
Height : 384 pixels
Display aspect ratio : 4:3
Frame rate mode : Constant
Frame rate : 29.970 fps
Color space : YUV
Chroma subsampling : 4:2:0
Bit depth : 8 bits
Scan type : Progressive
Bits/(Pixel*Frame) : 0.056
Stream size : 56.5 MiB (90%)
Writing library : x264 core 60
Audio
-
ID : 2
Format : AAC
Format/Info : Advanced Audio Codec
Format profile : HE-AACv2 / HE-AAC / LC
Codec ID : 40
Duration : 23mn 55s
Bit rate mode : Variable
Bit rate : 32.2 Kbps
Maximum bit rate : 36.7 Kbps
Channel(s) : 2 channels / 1 channel / 1 channel
Channel positions : Front: L R / Front: C / Front: C
Sampling rate : 48.0 KHz / 48.0 KHz / 24.0 KHz
Compression mode : Lossy
Stream size : 5.52 MiB (9%)

Story

Under the care of her adoptive family, Saya Otonashi has been living the life of an anemic amnesiac, but otherwise ordinary schoolgirl. However, her happy life is shattered when she is attacked by a Chiropteran, learning that she is the only one who can defeat them. Armed with her katana, Saya embarks on a journey with her family, allies, and her chevalier, Haji, to rid the world of the Chiropteran threat and rediscover her identity. The course of the journey reveals the background history of the Chiropterans and Saya's very deep past, which extends into the mid-19th century.
The series is initially set in September 2005 Okinawa City (Koza), on Okinawa Island, near the US Kadena Air Base. In the course of the series, Saya visits locations across the world, fighting enemy chiropteran and searching for her origins.

Screenshots







-
Thank you for downloading.

Enjoy watching :)
And Request more anime at
__________________________
[email protected]
___________________

Images:
http://img542.imageshack.us/img542/2752/blood1.png|http://img856.imageshack.us/img856/1276/blood2e.png|http://img545.imageshack.us/img545/6618/blood3.png|http://img525.imageshack.us/img525/9110/blood4.png|http://img593.imageshack.us/img593/5333/blood5.png|http://img222.imageshack.us/img222/4625/blood6.png

Related at Blood+ Season 1 480p :
© 2019 www.gphi.it | Contacts | DMCA | Privacy Policy