» » Card Captor Sakura - The Movie II BDmux 1080p - H264 - Jap Eng 2.0 Ac3 Jap 5.1 Flac - SoftSub Ita Eng
Language: Italian
Size: 11.4 GB
Rating: 4.9
Category: Anime
Votes: 802
Card Captor Sakura - The Movie II BDmux 1080p - H264 - Jap Eng 2.0 Ac3 Jap 5.1 Flac - SoftSub Ita Eng
Files:
Card Captor Sakura - The Movie II[BDmux 1080p - H264 - Jap Eng Ac3 - SoftSub Ita Eng]
  • Card Captor Sakura Movie II - La carta sigillata.mkv (11.4 GB)


Card Captor Sakura Movie II - La carta sigillata. 8%) Title : Giapponese . Flac Writing library : libFLAC .

Card Captor Sakura Movie II - La carta sigillata. 1. 1 GB. Description. Card Captor Sakura - The Movie I. .Captor Sakura: Movie II - La carta sigillata - Mux e Sub By MPT Encoded date : UTC 2017-11-19 17:20:31 Writing application : mkvmerge v1. 0 ('Apricity') 64-bit Writing library : libebml v. 8 Attachments : Balzac-Regular. ttf, Familiar Pro-Bold. Related Torrents. You cannot download any of those files from here.

info he-Movie-II- Anime. to Card Captor Sakura - The Movie II Anime. co Card Captor Sakura - The Movie II Anime. Card Captor Sakura Movie II - La carta sigillata.

Card Captor Sakura S02e29-35 video tv. 2 years5462 MB50. Sakura Card Captor Clear Card Hen - Mangás Cap. 01 à 33 + Extras (PT-BR PDF) ebook. Card captor Sakura -nyaa video movie hd. 2 years46 GB13. Card Captor Sakura 1-35 + OST video movie hd.

All Music Audio books Sound clips FLAC Other Movies Movies DVDR Music videos Movie clips TV shows Handheld HD - Movies HD - TV shows 3D.

All Music Audio books Sound clips FLAC Other Movies Movies DVDR Music videos Movie clips TV shows Handheld HD - Movies HD - TV shows 3D Other Windows Mac UNIX Handheld IOS (iPad/iPhone) Android Other OS PC Mac PSx XBOX360 Wii Handheld IOS (iPad/iPhone) Android Other Movies Movies DVDR Pictures Games HD - Movies Movie clips Other E-books Comics Pictures Covers.

Card Captor Sakura OAV - Il Video-Diario di Card Captor Sakura di Tomoyo!. You cannot download any of those files from here

Card Captor Sakura OAV - Il Video-Diario di Card Captor Sakura di Tomoyo!.

ch he-Movie-II- Other. eu Card Captor Sakura - The Movie II video. Mandando bala 0s, Punjabi Movies 2s, appiculture 1s, kalki 0s, thumbelina 32 1s, nfl 1s, SinfulXXX. MP4-KTR 1s, ncis los Angeles s11e07 2s, Kronos 1957 2s, hdrip 2s.

Card Captor Sakura - The Movie I. Lupin terzo VS Detectin Conan il Film (2013) FULL HD 1080p ITA JAP Subs DD. kv10.

Card Captor Sakura - The Movie II. 4 GB. 视频 创建时间:1年前 文件大小:11. 4 GB 下载热度:21 最近下载:1年前 磁力链接 迅雷链接. One Piece 264 - 288 HD 720p JAP ITA by . One Piece 268 - Di nuovo uniti + One Piece 269 - L'inganno. 7 GB. 视频 创建时间:1年前 文件大小:10. 7 GB 下载热度:19 最近下载:1年前 磁力链接 迅雷链接.

Please rename it to 1920x1080 when you archive it :) This is my 1080p BD Hi10p Dual Audio release of the Cardcaptor Sakura Movie II - The Sealed Card that is primarily based on Coalgirls’ 1080p 10-bit . FLAC Jap-BD encode. Video: 1920x1080 10-bit BD (Coalgirls JP-BD) Jap Audio: . FLAC 16-bit (Coalgirls JP-BD) Eng Audio: . AC3 (US-BD) Signs & Songs Subs: Coalgirls (deanzel modified) Full Subs: Coalgirls R1 (deanzel fixed) Chapters Cardcaptor Sakura Movies I & II (1080p & 720p Hi10p Dual Audio FLAC-AC3) - Kametsu.

Audios: Español MP3 . (Gokian), Japonés DTS ., Japonés AC3 . /2. Sakura Card Captor 01 - Sakura y el Misterioso Libro Mágico. 0 Sincronizacion: Spawn Dark Subtitulos: Español (Zero3), Inglés (Noob) Calidad: Blu-Ray Japones Idioma: Latino-Japones Formato: mkv Codec: H264 Resolucion: 1440x1080 From MexAnime. info Release: Jorchking.

Card Captor Sakura - The Movie II [BDmux 1080p - H264 - Jap Eng 2.0 Ac3 Jap 5.1 Flac - SoftSub Ita Eng]
.: Trama :.
Il film è ambientato quattro mesi dopo l'ultima puntata dell'anime.
Inizia con la demolizione della vecchia casa di Eriol, e una carta nascosta nelle fondamenta, appare.
Intanto, Sakura, dopo aver trasformato tutte le carte di Clow in carte di Sakura,
è a tutti gli effetti la nuova padrona delle carte, nonché un'eccellente maga.
La ragazza si sta preparando al Nadeshiko Festival, un festival che si tiene a Tomoeda,
in cui dovrà recitare il ruolo della principessa in una commedia organizzata dalla sua classe.
Nel frattempo, un nuovo parco di divertimenti viene aperto a Tomoeda, sul terreno su cui era costruita la casa di Eriol.
Quando Sakura e Tomoyo si recano al parco, Sakura avverte una forza molto forte, proveniente dal parco...
.: Locandina :.

.: Scheda :.
Titolo originale: Cardcaptor Sakura - The Movie 2: The Sealed Card (劇場版カードキャプターさくら 封印されたカード Gekijōban Kādokyaputā Sakura: Fūin sareta kādo)
Anno: Giappone 15/07/2000
Genere: Shōjo, Avventura, combattimento, majokko, scolastico, sentimentale
Produzione: Madhouse
Distribuzione: Bandai Visual, Shochiku
Numero episodi: 01 (film)
Durata approssimativa degli episodi: 98 min
.: Screenshot :.

.: Dati tecnici del file :.
General
Unique ID : 244269028992318315727230832737412892831 (0xB7C480F540DF240EAA6185621DE2C89F)
Complete name : Card Captor Sakura Movie II - La carta sigillata.mkv
Format : Matroska
Format version : Version 4 / Version 2
File size : 11.4 GiB
Duration : 1 h 32 min
Overall bit rate mode : Variable
Overall bit rate : 17.7 Mb/s
Movie name : Card Captor Sakura: Movie II - La carta sigillata - Mux e Sub By MPT
Encoded date : UTC 2017-11-19 17:20:31
Writing application : mkvmerge v18.0.0 ('Apricity') 64-bit
Writing library : libebml v1.3.5 + libmatroska v1.4.8
Attachments : Balzac-Regular.ttf / ClearfaceGothicLTStd-Roman.otf / Disney_Simple.ttf / Familiar Pro-Bold.otf / Gotham-Medium.ttf / HWYGWDE.TTF / RuzickaTypeK.ttf
Video
ID : 1
Format : AVC
Format/Info : Advanced Video Codec
Format profile : High [email protected]
Format settings, CABAC : Yes
Format settings, ReFrames : 16 frames
Codec ID : V_MPEG4/ISO/AVC
Duration : 1 h 32 min
Bit rate : 15.5 Mb/s
Width : 1 920 pixels
Height : 1 080 pixels
Display aspect ratio : 16:9
Frame rate mode : Constant
Frame rate : 23.976 (24000/1001) FPS
Color space : YUV
Chroma subsampling : 4:2:0
Bit depth : 10 bits
Scan type : Progressive
Bits/(Pixel*Frame) : 0.312
Stream size : 10.0 GiB (88%)
Writing library : x264 core 118
Encoding settings : cabac=1 / ref=16 / deblock=1:-2:-2 / analyse=0x3:0x133 / me=umh / subme=10 / psy=1 / psy_rd=0.70:0.10 / mixed_ref=1 / me_range=24 / chroma_me=1 / trellis=2 / 8x8dct=1 / cqm=0 / deadzone=21,11 / fast_pskip=1 / chroma_qp_offset=-3 / threads=9 / sliced_threads=0 / nr=0 / decimate=1 / interlaced=0 / bluray_compat=0 / constrained_intra=0 / bframes=8 / b_pyramid=2 / b_adapt=2 / b_bias=0 / direct=3 / weightb=1 / open_gop=0 / weightp=2 / keyint=250 / keyint_min=23 / scenecut=40 / intra_refresh=0 / rc_lookahead=60 / rc=crf / mbtree=1 / crf=19.0 / qcomp=0.60 / qpmin=0 / qpmax=81 / qpstep=4 / ip_ratio=1.40 / aq=1:1.20
Language : Japanese
Default : Yes
Forced : No
Audio #1
ID : 2
Format : AC-3
Format/Info : Audio Coding 3
Mode extension : CM (complete main)
Format settings, Endianness : Big
Codec ID : A_AC3
Duration : 1 h 32 min
Bit rate mode : Constant
Bit rate : 448 kb/s
Channel(s) : 2 channels
Channel positions : Front: L R
Sampling rate : 48.0 kHz
Frame rate : 31.250 FPS (1536 spf)
Bit depth : 16 bits
Compression mode : Lossy
Stream size : 296 MiB (3%)
Title : Giapponese 2.0 Ac3
Language : Japanese
Default : Yes
Forced : No
Audio #2
ID : 3
Format : FLAC
Format/Info : Free Lossless Audio Codec
Codec ID : A_FLAC
Duration : 1 h 32 min
Bit rate mode : Variable
Bit rate : 1 372 kb/s
Channel(s) : 6 channels
Channel positions : Front: L C R, Side: L R, LFE
Sampling rate : 48.0 kHz
Frame rate : 11.719 FPS (4096 spf)
Bit depth : 16 bits
Stream size : 908 MiB (8%)
Title : Giapponese 5.1 Flac
Writing library : libFLAC 1.2.1 (UTC 2007-09-17)
Language : Japanese
Default : No
Forced : No
Audio #3
ID : 4
Format : AC-3
Format/Info : Audio Coding 3
Mode extension : CM (complete main)
Format settings, Endianness : Big
Codec ID : A_AC3
Duration : 1 h 32 min
Bit rate mode : Constant
Bit rate : 320 kb/s
Channel(s) : 2 channels
Channel positions : Front: L R
Sampling rate : 48.0 kHz
Frame rate : 31.250 FPS (1536 spf)
Bit depth : 16 bits
Compression mode : Lossy
Stream size : 212 MiB (2%)
Title : Inglese 2.0 Ac3
Language : English
Default : No
Forced : No
Text #1
ID : 5
Format : ASS
Codec ID : S_TEXT/ASS
Codec ID/Info : Advanced Sub Station Alpha
Duration : 1 h 31 min
Bit rate : 280 b/s
Count of elements : 2911
Compression mode : Lossless
Stream size : 188 KiB (0%)
Title : Italiano
Language : Italian
Default : Yes
Forced : No
Text #2
ID : 6
Format : ASS
Codec ID : S_TEXT/ASS
Codec ID/Info : Advanced Sub Station Alpha
Duration : 1 h 31 min
Bit rate : 167 b/s
Count of elements : 1756
Compression mode : Lossless
Stream size : 112 KiB (0%)
Title : Signs & Songs
Language : English
Default : No
Forced : No
Text #3
ID : 7
Format : ASS
Codec ID : S_TEXT/ASS
Codec ID/Info : Advanced Sub Station Alpha
Duration : 1 h 31 min
Bit rate : 247 b/s
Count of elements : 2876
Compression mode : Lossless
Stream size : 165 KiB (0%)
Title : Coalgirls
Language : English
Default : No
Forced : No
Menu
00:00:00.000 : en:00:00:00.000
00:01:16.285 : en:00:01:16.285
00:01:31.758 : en:00:01:31.758
00:07:07.177 : en:00:07:07.177
00:10:29.712 : en:00:10:29.712
00:12:12.148 : en:00:12:12.148
00:13:39.193 : en:00:13:39.193
00:16:46.214 : en:00:16:46.214
00:23:19.273 : en:00:23:19.273
00:25:32.030 : en:00:25:32.030
00:27:41.451 : en:00:27:41.451
00:29:02.449 : en:00:29:02.449
00:35:14.029 : en:00:35:14.029
00:41:10.093 : en:00:41:10.093
00:45:52.917 : en:00:45:52.917
00:48:43.212 : en:00:48:43.212
00:50:16.305 : en:00:50:16.305
00:52:32.149 : en:00:52:32.149
00:54:42.362 : en:00:54:42.362
01:00:50.605 : en:01:00:50.605
01:03:16.459 : en:01:03:16.459
01:05:32.095 : en:01:05:32.095
01:11:14.854 : en:01:11:14.854
01:15:31.652 : en:01:15:31.652
01:22:24.940 : en:01:22:24.940
01:32:31.546 : en:01:32:31.546

Images:
https://i.imgur.com/UHs4MYZ.jpg|https://i.imgur.com/MLInZjW.jpg

Related at Card Captor Sakura - The Movie II :
© 2019 www.gphi.it | Contacts | DMCA | Privacy Policy