» » Hunter X Hunter 122 mp4 Hi10 720p ENG-SUBBED GWC
Language: Japanese
Size: 78.1 MB
Rating: 4.3
Category: Anime
Votes: 342
Hunter X Hunter 122 mp4 Hi10 720p ENG-SUBBED GWC
Files:
  • Hunter X Hunter 122 [Hi10 720p][ENG-SUBBED][GWC].mp4 (78.1 MB)


Hunter x Hunter (2011) Episode 122 English Dubbed.

Hunter x Hunter (2011) Episode 122 English Dubbed. Category : Hunter x Hunter (2011). Watch Hunter x Hunter (2011) Episode 122 English Dubbed Online with High Quality.

Synopsis A Hunter is one who travels the world doing all sorts of dangerous tasks. Gon is a young boy whose father disappeared long ago, being a Hunter. He believes if he could also follow his father's path, he could one day reunite with him. After becoming 12, Gon leaves his home and takes on the task of entering the Hunter exam, notorious for its low success rate and high probability of death to become an official Hunter.

You cannot download any of those files from here. Wwe raw 3s, judgemental 0s, the difference engine 2s, rocky 1976 1s, good boys 2019 0s, the shootist 1s, title: Dean Koontz The Odd Thomas Series 4-Book Bu 2s, sense8 S01E01 1s, Four Last Songs 3s, rick and morty 0s.

Please bookmark this domain and UNBLOCK on us ADBLOCK!!! We recieve too many complaints regarding to broken videos. If you are using an ADblock you probably won't be able to watch in HD and sometimes you will get errors like "No video with supported format and MIME type found". This is a bug of Adblock not our fault!! Please turn off your Adblocks to watch it without any trouble. Hunter x Hunter (2011) Episode 122 English Subbed.

Bila Video Tidak Dapat Diputar, Gunakan Video Mirror Dibawah Ini. SD. Status: Sub Indo ANIMEINDO. HD.

You are watching Hunter x Hunter (2011) Episode 124 Online at Animegg. Select a mirror and stream Hunter x Hunter (2011) Episode 124 Subbed & Dubbed in HD. High Quality Anime Online at Animegg.

To attain their own goals and desires, together the four of them take the Hunter Exam, notorious for its low success rate and high probability of death.

Subtitle Indonesia, Streaming Hunter x Hunter (2011) Subtitle Indonesia Anoboy, Samehadaku, Animeindo, nontonanime, nanime, Nonton Hunter x Hunter (2011) Full Episode Sub Indo, Download Batch Indo, Streaming 480p 720p 360p, Mp4 Sub Indo, Hunter x Hunter (2011) MK. .

Subtitle Indonesia, Streaming Hunter x Hunter (2011) Subtitle Indonesia Anoboy, Samehadaku, Animeindo, nontonanime, nanime, Nonton Hunter x Hunter (2011) Full Episode Sub Indo, Download Batch Indo, Streaming 480p 720p 360p, Mp4 Sub Indo, Hunter x Hunter (2011) MKV Sub Indo, Hunter x Hunter (2011) Full episode Subtitle Indonesia, Nonton Hunter x Hunter (2011) Sub Indo, Streaming Hunter x Hunter.

Hunter X Hunter 122 [Hi10 720p][ENG-SUBBED][GWC]

STORYLINE :
Gon is a youth who lives on Kujira Isle. His dream is to become a Hunter like his father, to search out lost treasures, artefacts, and mythical creatures.
Determined to become a professional Hunter willing to stake his life in challenging the unknown, he sets off on a journey and meets fellow Hunter wannabes Killua, Kurapika, and Leorio.

THUMBNAIL IMAGE :




FOLLOW ON FACEBOOK :





General
Format : MPEG-4
Format profile : Base Media
File size : 78.1 MiB
Duration : 20mn 56s
Overall bit rate mode : Variable
Overall bit rate : 522 Kbps
Video
Format : AVC
Format profile : High [email protected]
Format settings, CABAC : Yes
Format settings, ReFrames : 10 frames
Duration : 20mn 56s
Bit rate : 443 Kbps
Maximum bit rate : 2 986 Kbps
Width : 1 280 pixels
Height : 720 pixels
Display aspect ratio : 16:9
Frame rate mode : Variable
Frame rate : 23.976 fps
Stream size : 66.3 MiB (85%)
Title : Hunter X Hunter 122 [Hi10 720p][ENG-SUBBED][GWC]
Writing library : x264 core
Audio
Format : AAC
Format profile : HE-AAC / LC
Duration : 20mn 56s
Bit rate mode : Variable
Channel(s) : 2 channels
Sampling rate : 48.0 KHz / 24.0 KHz
Stream size : 11.2 MiB (14%)
Language : Japanese
Text
Format : Timed Text
Title : [GWC]
Language : English

Images:
http://i.imgur.com/TPxM6Wp.jpg|http://s20.postimg.org/l0qsjtqex/ailscreenscib.png|http://img163.imageshack.us/img163/8710/54100788659511547411.gif|http://img843.imageshack.us/img843/8958/ohj0.jpg|http://img163.imageshack.us/img163/8710/54100788659511547411.gif|http://s21.postimg.org/d7ezolr5j/facebook_logo.png|http://img651.imageshack.us/img651/8905/saythanks.gif|http://imageshack.us/a/img27/5276/i57.png|http://img651.imageshack.us/img651/8905/saythanks.gif|http://s20.postimg.org/yqc6oob95/MEDII.jpg

Related at Hunter X Hunter 122 mp4:
Comments 1
Larosa
Thnx bro !!!
© 2019 www.gphi.it | Contacts | DMCA | Privacy Policy