» » Brynhildr in the Darkness + OVA 1080P HEVC Bluury Gokukoku no Brynhildr 10 bit dual Audio 2014
Language: English
Size: 3.8 GB
Rating: 4.5
Category: Anime
Votes: 794
Brynhildr in the Darkness + OVA 1080P HEVC Bluury Gokukoku no Brynhildr 10 bit dual Audio 2014
Files:
Brynhildr in the Darkness [Gokukoku no Brynhildr] + OVA (2014)
  • Torrent Downloaded From Katcr.co - Kickasstorrents.txt (0.1 KB)
  • Episodes.txt (2.0 KB)
  • Brynhildr in the Darkness 11.5 Much Ado About Nothing.mkv (245.6 MB)
  • Brynhildr in the Darkness 09 False Memories.mkv (246.1 MB)
  • Brynhildr in the Darkness 08 The Last Lead.mkv (251.4 MB)
  • Brynhildr in the Darkness 07 Fragment of Hope.mkv (254.4 MB)
  • Brynhildr in the Darkness 10 Proof of Life.mkv (256.8 MB)
  • Brynhildr in the Darkness 12 Witch Hunt.mkv (258.4 MB)
  • Brynhildr in the Darkness 02 Magician.mkv (266.2 MB)
  • Brynhildr in the Darkness 04 Lost Memories.mkv (267.2 MB)
  • Brynhildr in the Darkness 11 A Sudden Reunion.mkv (269.7 MB)
  • Brynhildr in the Darkness 05 Stargazing .mkv (282.4 MB)
  • Brynhildr in the Darkness 03 Death Suppressants.mkv (284.2 MB)
  • Brynhildr in the Darkness 06 The Meaning of Her Smile.mkv (295.4 MB)
  • Brynhildr in the Darkness 01 While Waiting For You.mkv (304.2 MB)
  • Brynhildr in the Darkness 13 Things to Protect.mkv (381.5 MB)


Brynhildr in the Darkness 13 Things to Protect.

Brynhildr in the Darkness 13 Things to Protect.

English: Brynhildr in the Darkness. Synonyms: Gokukoku no Brynhildr. Duration: 23 minutes. Japanese: 極黒のブリュンヒルデ. Type: TV. Episode: 13. Status: Finished Airing. Aired: Apr 06, 2014 to Jun 29, 2014.

All Music Audio books Sound clips FLAC Other Movies Movies DVDR Music videos Movie clips TV shows Handheld HD - Movies HD - TV. .Another fine encode by me,download seed and enjoy. Video 1080P CRF 24 x265(hevc).

All Music Audio books Sound clips FLAC Other Movies Movies DVDR Music videos Movie clips TV shows Handheld HD - Movies HD - TV shows 3D Other Windows Mac UNIX Handheld IOS (iPad/iPhone) Android Other OS PC Mac PSx XBOX360 Wii Handheld IOS (iPad/iPhone) Android Other Movies Movies DVDR Pictures Games HD - Movies Movie clips Other E-books Comics Pictures Covers.

Download Gokukoku no Brynhildr 1080p BD Dual Audio HEVC. Gokukoku no Brynhildr. Synopsis Encode Details. Video: 1080p 10Bit x265. Demon Alpha December 13, 2018. Ten years ago, Ryouta Murakami set out with his best friend Kuroneko to find proof of alien life. A tragic accident occurred, killing Kuroneko and injuring Ryouta. Subtitles: Signs & Songs + Full Subtitles. Characters & Voice Actors.

Screenshot Video ID : 1 Format : HEVC Format/Info : High Efficiency Video Coding Codec ID.txt (. KB). Brynhildr in the Darkness 1. Much Ado About Nothing.

txt (. mkv (24. MB). Brynhildr in the Darkness 09 False Memories. Brynhildr in the Darkness 08 The Last Lead. mkv (25. Brynhildr in the Darkness 07 Fragment of Hope.

Gokukoku no Brynhildr Seishun Buta Yarou wa Yumemiru Shoujo no Yume o Minai.

Gokukoku no Brynhildr. Torrents . Seishun Buta Yarou wa Yumemiru Shoujo no Yume o Minai December 1, 2019. Two Car November 14, 2019.

Format: AVC Profile: High [email protected]

Original Name: 極黒のブリュンヒルデ Alternative Name: Brynhildr in the Darkness, 极黑的布伦希尔德 Aired: Apr 6, 2014 to Jun 29, 2014 Episodes: 13 + 1 Categories: Action, Alien, Angst, Drama, Ecchi, Fantasy, Harem, Harem, Horror, Human Enhancement, Love Polygon, Mystery, Sci-Fi, Seinen, Super Power, Tragedy, Violence Producer: Arms, VA. Format: AVC Profile: High [email protected] 1 Codec: x264 - core 142 r2431+42 c69a006 tMod Frame Rate: 2. 76 fps Scan Type: Progressive Display Aspect Ratio: 16:9 Resolution: 1920x1080 Bit Depth: 10 bits Encoder Settings: cabac 1, ref 16, deblock 1:0:0, analyse 0x3

download seed and enjoy
Screenshot



[spoiler=mediainfo]Video
ID                          : 1
Format                      : HEVC
Format/Info                 : High Efficiency Video Coding
Codec ID                    : V_MPEGH/ISO/HEVC
Duration                    : 23 min
Bit rate                    : 1 533 kb/s
Width                       : 1 920 pixels
Height                      : 1 080 pixels
Display aspect ratio        : 16:9
Frame rate mode             : Constant
Frame rate                  : 23.976 (24000/1001) FPS
Bits/(Pixel*Frame)          : 0.031
Stream size                 : 260 MiB (85%)
Default                     : Yes
Forced                      : No
Audio #1
ID                          : 2
Format                      : AAC
Format/Info                 : Advanced Audio Codec
Format profile              : LC
Codec ID                    : A_AAC
Duration                    : 23 min
Bit rate                    : 128 kb/s
Channel(s)                  : 2 channels
Channel positions           : Front: L R
Sampling rate               : 48.0 kHz
Frame rate                  : 46.875 FPS (1024 spf)
Compression mode            : Lossy
Stream size                 : 21.7 MiB (7%)
Writing library             : Lavc56.26.100 libfdk_aac
Language                    : English
Default                     : Yes
Forced                      : No
Audio #2
ID                          : 3
Format                      : AAC
Format/Info                 : Advanced Audio Codec
Format profile              : LC
Codec ID                    : A_AAC
Duration                    : 23 min
Bit rate                    : 128 kb/s
Channel(s)                  : 2 channels
Channel positions           : Front: L R
Sampling rate               : 48.0 kHz
Frame rate                  : 46.875 FPS (1024 spf)
Compression mode            : Lossy
Stream size                 : 21.7 MiB (7%)
Writing library             : Lavc56.26.100 libfdk_aac
Language                    : Japanese
Default                     : No
Forced                      : No
Text #1
ID                          : 4
Format                      : ASS
Codec ID                    : S_TEXT/ASS
Codec ID/Info               : Advanced Sub Station Alpha
Duration                    : 23 min
Bit rate                    : 1 776 b/s
Count of elements           : 1279
Compression mode            : Lossless
Stream size                 : 308 KiB (0%)
Title                       : Songs/Signs
Language                    : English
Default                     : Yes
Forced                      : No
Text #2
ID                          : 5
Format                      : ASS
Codec ID                    : S_TEXT/ASS
Codec ID/Info               : Advanced Sub Station Alpha
Duration                    : 23 min
Bit rate                    : 1 894 b/s
Count of elements           : 1589
Compression mode            : Lossless
Stream size                 : 328 KiB (0%)
Title                       : English
Language                    : Japanese
Default                     : No
Forced                      : No
[/spoiler]

Images:
https://boltimg.com/images/MkuNS.md.jpg|https://boltimg.com/images/MkC2E.md.jpg|https://boltimg.com/images/MkKdz.md.jpg

Related at Brynhildr in the Darkness + OVA 1080P HEVC Bluury:
Comments 2
Steel_Blade
Video is not working on VLC or maybe Im doing something wrong?
Akelevar
download latest vlc should work
© 2019 www.gphi.it | Contacts | DMCA | Privacy Policy