» » Naruto Shippuuden - 367 mp4 Hi10 720p ENG-SUBBED GWC
Language: Japanese
Size: 88.1 MB
Rating: 4.6
Category: Anime
Votes: 401
Naruto Shippuuden - 367 mp4 Hi10 720p ENG-SUBBED GWC
Files:
  • Naruto Shippuuden - 367 [Hi10 720p] [ENG-SUBBED] [GWC].mp4 (88.1 MB)


Boruto Series English Subbed. Naruto Shippuden English Subbed Movies. Naruto Shippuden Episode 10 English Dubbed Illusionary Dragon Nine Seal

Boruto Series English Subbed. Spin-off English Dubbed. Naruto: Shippuden is the continuation of the original animated TV series Naruto. The story revolves around an older and slightly more matured Uzumaki Naruto and his quest to save his friend Uchiha Sasuke from the grips of the snake-like Shinobi, Orochimaru. Naruto Shippuden Episode 10 English Dubbed Illusionary Dragon Nine Seal. Naruto Shippuden Episode 9 English Dubbed The Jinchuriki's Tears. Naruto Shippuden Episode 8 English Dubbed Team Kakashi deployed.

After 2 and a half years Naruto finally returns to his village of Konoha, and sets about putting his ambitions to work, though it will not be easy, as he has amassed a few (more dangerous) . 10/29/15 Naruto Shippuuden 01-79SD. 480p: Magnet Torrent Uploaded. net FileUpload Uplod.

Batches usually contain the latest version of the subs, so grab these! 10/29/15 Naruto Shippuuden 80-426SD720p1080p. 720p: Magnet Torrent Uploaded. 03/23/17 Naruto Shippuuden 500SD720p1080p.

stream you can watch anime online english subbed in high quality.

Naruto: Shippuuden Episode 500 Jul 22, 2018. Naruto: Shippuuden Episode 499 Jul 22, 2018. stream you can watch anime online english subbed in high quality.

Download Naruto Shippuuden all 17 seasons in 1080p English Subbed, Naruto Shippuden All Episodes Download in batch . And always remember - Kaizoku ou ni, ore wa naru! Naruto Shippuden 1080p English Subbed.

Download Naruto Shippuuden all 17 seasons in 1080p English Subbed, Naruto Shippuden All Episodes Download in batch from Anime Kaizoku.

Shippuuden - 367 Writing library : x264 core. Files: Naruto Shippuuden - 367 .mp4 (8. MB).

Naruto Shippuuden 720p Eng Sub HEVC

Naruto Shippuuden 720p Eng Sub HEVC. Naruto Shippuuden 720p Eng Sub HEVC. Download Naruto Shippuuden 720p Eng Sub HEVC. By Darklord On Mar 30, 2019 Last updated Jun 23, 2019 10,980. It has been two and a half years since Naruto Uzumaki left Konohagakure, the Hidden Leaf Village, for intense training following events which fueled his desire to be stronger. Now Akatsuki, the mysterious organization of elite rogue ninja, is closing in on their grand plan which may threaten the.

Naruto Shippuuden Episode 316 - The Reanimated Allied Forces. Naruto Shippuuden - 316 .mkv 480p RIP FROM crunchyroll.

Naruto Shippuuden - 367 [Hi10 720p] [ENG-SUBBED] [GWC]

STORYLINE :
Naruto Uzumaki, is a loud, hyperactive, adolescent ninja who constantly searches for approval and recognition, as well as to become Hokage, who is acknowledged as the leader and strongest of all ninja in the village.





FOLLOW ON FACEBOOK :





General
Format : MPEG-4
Format profile : Base Media
File size : 88.1 MiB
Duration : 20mn 2s
Overall bit rate mode : Variable
Overall bit rate : 615 Kbps
Video
Format : AVC
Format profile : High [email protected]
Format settings, CABAC : Yes
Format settings, ReFrames : 10 frames
Duration : 20mn 2s
Bit rate : 538 Kbps
Maximum bit rate : 6 764 Kbps
Width : 1 280 pixels
Height : 720 pixels
Display aspect ratio : 16:9
Frame rate mode : Variable
Frame rate : 23.976 fps
Stream size : 77.2 MiB (88%)
Title : Naruto Shippuuden - 367 [Hi10 720p] [ENG-SUBBED] [GWC]
Writing library : x264 core
Audio
Format : AAC
Format profile : HE-AAC / LC
Duration : 20mn 2s
Bit rate mode : Variable
Channel(s) : 2 channels
Sampling rate : 48.0 KHz / 24.0 KHz
Stream size : 10.3 MiB (12%)
Language : Japanese
Text
Format : Timed Text
Title : [GWC]
Language : English

Images:
http://i.imgur.com/1jUH7eV.jpg|http://i.imgur.com/VZlL078.jpg|http://i.imgur.com/hfRzOJw.gif|http://i.imgur.com/1HYVMMl.jpg|http://i.imgur.com/hfRzOJw.gif|http://s21.postimg.org/d7ezolr5j/facebook_logo.png|http://i.imgur.com/FQ6bMc5.gif|http://i.imgur.com/9llPOMh.gif|http://i.imgur.com/FQ6bMc5.gif|http://s20.postimg.org/yqc6oob95/MEDII.jpg

Related at Naruto Shippuuden - 367 mp4:
© 2019 www.gphi.it | Contacts | DMCA | Privacy Policy