» » Dragon Ball Super S02 1080p Blu-Ray 10-Bit Dual-Audio TrueHD x264-iAHD
Language: English
Size: 16.8 GB
Rating: 4.8
Category: Anime
Votes: 580
Dragon Ball Super S02 1080p Blu-Ray 10-Bit Dual-Audio TrueHD x264-iAHD
Files:
Dragon.Ball.Super.S02.1080p.Blu-Ray.10-Bit.Dual-Audio.TrueHD.x264-iAHD
  • Dragon.Ball.Super.S02E04.1080p.Blu-Ray.10-Bit.Dual-Audio.TrueHD.x264-iAHD.mkv (1.1 GB)
  • Dragon.Ball.Super.S02E05.1080p.Blu-Ray.10-Bit.Dual-Audio.TrueHD.x264-iAHD.mkv (1.1 GB)
  • Dragon.Ball.Super.S02E07.1080p.Blu-Ray.10-Bit.Dual-Audio.TrueHD.x264-iAHD.mkv (1.1 GB)
  • Dragon.Ball.Super.S02E03.1080p.Blu-Ray.10-Bit.Dual-Audio.TrueHD.x264-iAHD.mkv (1.2 GB)
  • Dragon.Ball.Super.S02E02.1080p.Blu-Ray.10-Bit.Dual-Audio.TrueHD.x264-iAHD.mkv (1.2 GB)
  • Dragon.Ball.Super.S02E11.1080p.Blu-Ray.10-Bit.Dual-Audio.TrueHD.x264-iAHD.mkv (1.2 GB)
  • Dragon.Ball.Super.S02E10.1080p.Blu-Ray.10-Bit.Dual-Audio.TrueHD.x264-iAHD.mkv (1.3 GB)
  • Dragon.Ball.Super.S02E08.1080p.Blu-Ray.10-Bit.Dual-Audio.TrueHD.x264-iAHD.mkv (1.3 GB)
  • Dragon.Ball.Super.S02E12.1080p.Blu-Ray.10-Bit.Dual-Audio.TrueHD.x264-iAHD.mkv (1.3 GB)
  • Dragon.Ball.Super.S02E13.1080p.Blu-Ray.10-Bit.Dual-Audio.TrueHD.x264-iAHD.mkv (1.4 GB)
  • Dragon.Ball.Super.S02E09.1080p.Blu-Ray.10-Bit.Dual-Audio.TrueHD.x264-iAHD.mkv (1.4 GB)
  • Dragon.Ball.Super.S02E01.1080p.Blu-Ray.10-Bit.Dual-Audio.TrueHD.x264-iAHD.mkv (1.4 GB)
  • Dragon.Ball.Super.S02E06.1080p.Blu-Ray.10-Bit.Dual-Audio.TrueHD.x264-iAHD.mkv (1.7 GB)


Thanks for downloading, Enjoy your Anime (o˘◡˘o)

Video
ID : 1
Format : AVC
Format/Info : Advanced Video Codec
Format profile : High [email protected]
Format settings : CABAC / 6 Ref Frames
Format settings, CABAC : Yes
Format settings, RefFrames : 6 frames
Codec ID : V_MPEG4/ISO/AVC
Duration : 23 min 7 s
Bit rate : 5 102 kb/s
Width : 1 920 pixels
Height : 1 080 pixels
Display aspect ratio : 16:9
Frame rate mode : Constant
Frame rate : 23.976 (24000/1001) FPS
Color space : YUV
Chroma subsampling : 4:2:0
Bit depth : 10 bits
Scan type : Progressive
Bits/(Pixel*Frame) : 0.103
Stream size : 844 MiB (58%)
Writing library : x264 core 148
Encoding settings : cabac=1 / ref=6 / deblock=1:0:0 / analyse=0x3:0x133 / me=umh / subme=10 / psy=1 / psy_rd=1.00:0.10 / mixed_ref=1 / me_range=24 / chroma_me=1 / trellis=2 / 8x8dct=1 / cqm=0 / deadzone=21,11 / fast_pskip=1 / chroma_qp_offset=-3 / threads=24 / lookahead_threads=2 / sliced_threads=0 / nr=0 / decimate=1 / interlaced=0 / bluray_compat=0 / constrained_intra=0 / bframes=4 / b_pyramid=2 / b_adapt=2 / b_bias=0 / direct=3 / weightb=1 / open_gop=0 / weightp=2 / keyint=240 / keyint_min=24 / scenecut=40 / intra_refresh=0 / rc_lookahead=50 / rc=crf / mbtree=1 / crf=16.0 / qcomp=0.60 / qpmin=0 / qpmax=81 / qpstep=4 / ip_ratio=1.40 / aq=1:1.00
Language : English
Default : Yes
Forced : No
Color range : Limited
Color primaries : BT.709
Transfer characteristics : BT.709
Matrix coefficients : BT.709
Audio #1
ID : 2
Format : TrueHD
Codec ID : A_TRUEHD
Duration : 23 min 7 s
Bit rate mode : Variable
Bit rate : 2 393 kb/s
Maximum bit rate : 3 918 kb/s
Channel(s) : 6 channels
Channel positions : Front: L C R, Side: L R, LFE
Sampling rate : 48.0 kHz
Frame rate : 1 200.000 FPS (40 SPF)
Bit depth : 24 bits
Compression mode : Lossless
Stream size : 396 MiB (27%)
Language : English
Default : Yes
Forced : No
Audio #2
ID : 3
Format : TrueHD
Codec ID : A_TRUEHD
Duration : 23 min 7 s
Bit rate mode : Variable
Bit rate : 1 168 kb/s
Maximum bit rate : 1 575 kb/s
Channel(s) : 2 channels
Channel positions : Front: C
Sampling rate : 48.0 kHz
Frame rate : 1 200.000 FPS (40 SPF)
Bit depth : 24 bits
Compression mode : Lossless
Stream size : 193 MiB (13%)
Language : Japanese
Default : No
Forced : No
Text #1
ID : 4
Format : PGS
Muxing mode : zlib
Codec ID : S_HDMV/PGS
Codec ID/Info : Picture based subtitle format used on BDs/HD-DVDs
Duration : 1 min 4 s
Bit rate : 42.9 kb/s
Count of elements : 30
Stream size : 335 KiB (0%)
Title : Signs/Songs
Language : English
Default : Yes
Forced : No
Text #2
ID : 5
Format : PGS
Muxing mode : zlib
Codec ID : S_HDMV/PGS
Codec ID/Info : Picture based subtitle format used on BDs/HD-DVDs
Duration : 22 min 53 s
Bit rate : 30.6 kb/s
Count of elements : 462
Stream size : 5.01 MiB (0%)
Title : Dialogue
Language : English
Default : No
Forced : No
Menu
00:00:00.000 : en:Chapter 01
00:01:26.086 : en:Chapter 02
00:10:44.060 : en:Chapter 03
00:21:36.128 : en:Chapter 04
00:22:36.188 : en:Chapter 05

Images:

Related at Dragon Ball Super S02 1080p Blu-Ray 10-Bit Dual-Audio TrueHD x264-iAHD:
© 2019 www.gphi.it | Contacts | DMCA | Privacy Policy