» » Naruto Shippuden - 393 mp4 Eng Subbed SD
Language: Japanese
Size: 44.2 MB
Rating: 4.1
Category: Anime
Votes: 448
Naruto Shippuden - 393 mp4 Eng Subbed SD
Files:
  • [AnimeRG] Naruto Shippuden - 393 [Eng Subbed][SD][JRR].mp4 (44.2 MB)


You are going to Watch Naruto Shippuden Episode 393 English subbed online free episodes with HQ, high quality. There are seperated players and you are watching on Player 1. Also you can find HTML5/Mp4 player on the second player. Tried All Players and None Works.

You are going to Watch Naruto Shippuden Episode 393 English subbed online free episodes with HQ, high quality. Stream Anime Naruto Shippuden Episode 393 Online English.

Bila Video Tidak Dapat Diputar, Gunakan Video Mirror Dibawah Ini. SD. Status: Sub Indo ANIMEINDO. HD.

Naruto Shippuden 393 Subtitle Indonesia Animeindo Naruto 393 Subtitle Indonesia Animeindo Download Video Naruto 393 3GP Mp4 Streaming Watch Naruto 393 Su. Bila Video Tidak Dapat Diputar, Gunakan Video Mirror Dibawah Ini.

You are currently watching Naruto Shippuden Episode 393 English Dubbed from the anime series Naruto Shippuden. You can watch more episodes of Naruto Shippuden English Dub or Sub here at Dubbed Anime for free! Previous. Dubbed Anime is an anime streaming video site where you can watch anime in English Dubbed & Subbed.

Watch Naruto Shippuden Dubbed Episodes Streaming Online only at NaruSpot. You can watch Naruto Subbed, Naruto Dubbed, Naruto Shippuden Subbed, Naruto Shippuden Dubbed and Naruto Movies! Naruto Shippuden Dubbed Episodes. Naruto Shippuden Episode 501 Dubbed Completed.

naruto shippuden episode 394 english sub ナルト疾風伝 39. Naruto Shippuden Episode 393 Full Episode English Subbed HD.

naruto shippuden episode 394 english sub ナルト疾風伝 394. Ahmaed Jak 948. 23:18. Lopga Meisaz 25K. 0:34.

All categories Anime - Anime Music Video - English-translated - ed - Raw Audio - Lossless - Lossy Literature - English-translated . Naruto Shippuden-393-SD. 18. MiB. 2015-04-28 02:54. 0. Naruto Shippuden-392-SD.

All categories Anime - Anime Music Video - English-translated - ed - Raw Audio - Lossless - Lossy Literature - English-translated - ed - Raw Live Action - English-translated - Idol/Promotional Video - ed - Raw Pictures - Graphics - Photos Software - Applications - Games. Naruto Shippuden-394-HD. 28. Naruto Shippuden-393-HD.

Home Naruto - Naruto English Dubbed - Naruto English Subbed - Naruto Ovas Naruto Shippuden - Naruto Shippuden English Dubbed - Naruto Shippuden English . Episode393 A True Ending.

Home Naruto - Naruto English Dubbed - Naruto English Subbed - Naruto Ovas Naruto Shippuden - Naruto Shippuden English Dubbed - Naruto Shippuden English Subbed - Naruto Shippuden Ovas Boruto Series - Boruto Series English Dubbed - Boruto Series English Subbed Naruto Spin-off - Spin-off English Dubbed - Spin-off English Subbed Movies - Naruto English Dubbed Movies - Naruto English Subbed Movies - Naruto Shippuden English Dubbed Movies - Naruto Shippuden English Subbed Movies. Naruto Shippuden Episode 393 English Subbed. Title: A True Ending.

Watch Naruto Shippuden Episode 393 English Subbed at Narutoget. Download: Type: Canon.

Torrent: Naruto Shippuden - 383 (Eng Subbed) .mp4.

Watch Naruto Shippuden Episode 393 English Subbed at Chia-Anime. Category: Naruto Shippuden. Watch via Mobile Download Episode 393 in MP4 Video format Player2 Next Episode Prev Episode. Tip: you can change the video quality if you're facing with AUTO PAUSING issue (due to slow connection). Naruto Shippuden 393 Discussion. Episode 393 Now Playing

General

Format : MPEG-4
Codec ID : mp42
File size : 44.2 MiB
Duration : 23mn 9s
Overall bit rate : 267 Kbps

Video

Format : AVC
Width : 640 pixels
Height : 360 pixels
Display aspect ratio : 16:9
Frame rate : 23.976 fps
Bit depth : 8 bits
Stream size : 27.5 MiB (62%)

Audio

Format : AAC
Bit rate : 96.0 Kbps
Channel(s) : 2 channels
Sampling rate : 48.0 KHz
Compression mode : Lossy
Stream size : 15.9 MiB (36%)

Subtitles

Language : English
Type : HardSubbed


Screens




SEED TILL YOU BLEED
DONT FORGET TO SAY THANKS AFTER DOWNLOADING

Images:
http://i.imgur.com/O1oUeTd.png|http://i.imgur.com/f3KNCNP.png|http://i.imgur.com/MuhpqZd.png

Related at Naruto Shippuden - 393 mp4:
© 2019 www.gphi.it | Contacts | DMCA | Privacy Policy