» » Hunter X Hunter - 135 mp4 Hi10 720p ENG SUBBED GWC
Language: English
Size: 72.5 MB
Rating: 4.3
Category: Anime
Votes: 289
Hunter X Hunter - 135 mp4 Hi10 720p ENG SUBBED GWC
Files:
  • Hunter X Hunter - 135 [Hi10 720p] [ENG SUBBED] [GWC].mp4 (72.5 MB)


Determined to become a professional Hunter willing to stake his life in challenging the unknown, he sets off on a journey and meets fellow Hunter wannabes .

You are currently watching Hunter x Hunter (2011) episode 1 in High Quality. Support us by donating to keep the site up & running. We will always run free from pop ads and strive to provide the best streaming experience for everyone. stream you can watch anime online english subbed in high quality.

Includes: – Hunter x Hunter 001-148 (Excluding episode 13 & 26) – Hunter x Hunter: Phantom Rouge – Hunter x Hunter: The Last Mission

Includes: – Hunter x Hunter 001-148 (Excluding episode 13 & 26) – Hunter x Hunter: Phantom Rouge – Hunter x Hunter: The Last Mission. Title(s): Hunter x Hunter 2011, Hunter Hunter 2011, Hunter Hunter: Phantom Rouge, Hunter x Hunter: Phantom Rouge, Hunter Hunter: The Last Mission, Hunter x Hunter: The Last Mission Video: - MP4 - MP4 Audio: Japanese. channel AAC, Movie 1-2 Japanese . /5. 1 channel AAC/AC3 Subs:, Movie 1-2 Zack could you please seed the 720p version. Vote Up0Vote Down Reply.

Please bookmark this domain and UNBLOCK on us ADBLOCK!!! We recieve too many complaints regarding to broken videos. If you are using an ADblock you probably won't be able to watch in HD and sometimes you will get errors like "No video with supported format and MIME type found". This is a bug of Adblock not our fault!! Please turn off your Adblocks to watch it without any trouble. Hunter x Hunter (2011) Episode 135 English Subbed.

To attain their own goals and desires, together the four of them take the Hunter Exam, notorious for its low success rate and high probability of death.

Categories Anime torrents Hunter X Hunter torrents.

10. Court Refused to Help MegaUpload User Get Files Back. more p2p news on torrentfreak. Categories Anime torrents Hunter X Hunter torrents. Trackers: 5. View all torrent trackers . Health: seeds: 0., leechers: 1.

Episode List: Hunter x Hunter. Hunter X Hunter 135 Subtitle Indonesia Animeindo. Status: Sub Indo ANIMEINDO. 480p Mediafire Tusfiles Solidfiles Mirror. 720p Mediafire Tusfiles Solidfiles Mirror.

Hunter X Hunter 121 Hi10 720p ENG-SUBBED GWC mkv in Anime, by. canc232. 61 MB. 0. Hunter X Hunter 122 Hi10 720p ENG-SUBBED GWC mp4 in Anime, by.

Hunter X Hunter - 135 [Hi10 720p] [ENG SUBBED] [GWC]

STORYLINE :
Gon is a youth who lives on Kujira Isle. His dream is to become a Hunter like his father, to search out lost treasures, artefacts, and mythical creatures.
Determined to become a professional Hunter willing to stake his life in challenging the unknown, he sets off on a journey and meets fellow Hunter wannabes Killua, Kurapika, and Leorio.





FOLLOW ON FACEBOOK :





General
Format : MPEG-4
Format profile : Base Media
File size : 72.5 MiB
Duration : 22mn 28s
Overall bit rate mode : Variable
Overall bit rate : 451 Kbps
Video
Format : AVC
Format profile : High [email protected]
Format settings, CABAC : Yes
Format settings, ReFrames : 10 frames
Duration : 22mn 28s
Bit rate : 375 Kbps
Maximum bit rate : 4 383 Kbps
Width : 1 280 pixels
Height : 720 pixels
Display aspect ratio : 16:9
Frame rate mode : Variable
Frame rate : 23.976 fps
Stream size : 60.3 MiB (83%)
Title : Hunter X Hunter - 135 [Hi10 720p] [ENG SUBBED] [GWC]
Writing library : x264 core
Audio
Format : AAC
Format profile : HE-AAC / LC
Duration : 22mn 28s
Bit rate mode : Variable
Channel(s) : 2 channels
Sampling rate : 48.0 KHz / 24.0 KHz
Stream size : 11.6 MiB (16%)
Language : Japanese
Text
Format : Timed Text
Title : [GWC]
Language : English

Images:
http://i.imgur.com/TPxM6Wp.jpg|http://i.imgur.com/VZlL078.jpg|http://i.imgur.com/hfRzOJw.gif|http://i.imgur.com/mbIvRbY.jpg|http://i.imgur.com/hfRzOJw.gif|http://s21.postimg.org/d7ezolr5j/facebook_logo.png|http://i.imgur.com/FQ6bMc5.gif|http://i.imgur.com/9llPOMh.gif|http://i.imgur.com/FQ6bMc5.gif|http://s20.postimg.org/yqc6oob95/MEDII.jpg

Related at Hunter X Hunter - 135 mp4:
© 2019 www.gphi.it | Contacts | DMCA | Privacy Policy