» » Naruto Shippuden Episode 278 - With English Subtitle MP4 Jazz_Singh
Language: Japanese
Size: 32.9 MB
Rating: 4.9
Category: Anime
Votes: 878
Naruto Shippuden Episode 278 - With English Subtitle MP4 Jazz_Singh
Files:
  • Naruto Shippuden Episode 278.mp4 (32.9 MB)
  • Torrent downloaded from ExtraTorrent.com.txt (0.3 KB)
  • Torrent downloaded from ahashare.com.txt (0.0 KB)
  • Torrent downloaded from thepiratebay.se.txt (0.0 KB)
  • Torrent downloaded from .org.txt (0.0 KB)
  • Torrent downloaded from fenopy.com.txt (0.0 KB)
  • Torrent downloaded from h33t.com.txt (0.0 KB)
  • Torrent downloaded from kat.ph.txt (0.0 KB)


You are going to Watch Naruto Shippuden Episode 278 English subbed online free episodes with HQ, high quality. Stream Anime Naruto Shippuden Episode 278 Online English sub Medic Ninja in Danger.

You are going to Watch Naruto Shippuden Episode 278 English subbed online free episodes with HQ, high quality. Neji loses his energy while scouting the company's outskirts for enemies, and Kiba advises him to go seek medical treatment. Meanwhile, at the medical encampment, Shizune and Sakura are treating numerous injured shinobi, while mysterious killings occur in secret throughout the base. Neji is revealed to be the culprit after slaughtering two more medics, and then goes after Sakura.

Naruto Shippuden Episode 267 - With English Subtitle.

About Naruto and Naruto Shippuden Anime Series. Naruto Shippuden Anime series is based on Part II Naruto Manga Series. It’s an ongoing series that started in February 2007 (Japanese Version)/October 2009 (English Dubbed). Naruto is Japanese Anime Series videos as well as Manga, but we are going to tell you about the video in this article. Naruto Anime is based on Japanese Manga series of the same name, but not all the episodes. Where to Watch Naruto and Naruto Shippuden English Dubbed Anime Videos for Free.

You can find all Naruto Shippuden Episodes English Subbed and Naruto Shippuden related content at WatchNaruto. Latest Episode : Naruto Shippuden Episode 500 Latest Chapter : Boruto Oneshot Chapter 1 Upcoming Episode : Naruto Shippuden Episode 501. Watch Naruto Anime Online.

Anime info: Naruto Shippuden. Please, reload page if you can't watch the video. Mp4UploadChoose this server. Report this Episode! Download. VidstreamingChoose this server. VidcdnChoose this server. XstreamcdnChoose this server.

Watch Streaming Anime Naruto Shippuden Episode 278 English Subbed online for Free in HD/High Quality. Our players are mobile (HTML5) friendly, responsive with ChromeCast support. You can use your mobile device without any trouble.

Naruto Shippuden Episode 278. Title: The Targeted Medical Ninja. Release date : September 6th, 2012. Format : AVC Format/Info : Advanced Video Codec Format profile : [email protected] 0 Format settings, CABAC : Yes Format settings, ReFrames : 6 frames Codec ID : avc1 Codec ID/Info : Advanced Video.

Change color of watched episodes. Change from videojs to jwplayer.

Naruto Shippuden Episode 278


Title:The Targeted Medical Ninja
Release date :September 6th, 2012
Audio language :Japanese
SubTitle language :English

General
Format : MPEG-4
Format profile : Base Media
Codec ID : isom
File size : 32.9 MiB
Duration : 23mn 9s
Overall bit rate mode : Variable
Overall bit rate : 199 Kbps
Encoded date : UTC 2012-09-05 11:03:52
Tagged date : UTC 2012-09-05 11:03:52

Video
Format : AVC
Format/Info : Advanced Video Codec
Format profile : [email protected]
Format settings, CABAC : Yes
Format settings, ReFrames : 6 frames
Codec ID : avc1
Codec ID/Info : Advanced Video Coding
Duration : 23mn 9s
Bit rate mode : Variable
Bit rate : 102 Kbps
Maximum bit rate : 1 102 Kbps
Width : 640 pixels
Height : 360 pixels
Display aspect ratio : 16:9
Original display aspect ratio : 16:9
Frame rate mode : Constant
Frame rate : 23.976 fps
Color space : YUV
Chroma subsampling : 4:2:0
Bit depth : 8 bits
Scan type : Progressive
Bits/(Pixel*Frame) : 0.018
Stream size : 16.9 MiB (51%)
Writing library : x264 core 125 r2208 d9d2288

Encoded date : UTC 2012-09-05 11:03:52
Tagged date : UTC 2012-09-05 11:03:52
Audio
Format : AAC
Format/Info : Advanced Audio Codec
Format profile : LC
Codec ID : 40
Duration : 23mn 9s
Bit rate mode : Variable
Bit rate : 93.3 Kbps
Maximum bit rate : 139 Kbps
Channel(s) : 2 channels
Channel positions : Front: L R
Sampling rate : 44.1 KHz
Compression mode : Lossy
Stream size : 15.4 MiB (47%)
Encoded date : UTC 2012-09-05 11:03:52
Tagged date : UTC 2012-09-05 11:03:52

Images:
http://i.imgur.com/jE103.png|http://i.imgur.com/hQ4wq.jpg|http://i.imgur.com/Q4wgn.gif|http://i.imgur.com/QMSEu.gif|http://i.imgur.com/ctI4t.gif|http://i.imgur.com/beorv.png

Related at Naruto Shippuden Episode 278 - With English Subtitle MP4 :
© 2019 www.gphi.it | Contacts | DMCA | Privacy Policy