» » One Piece - 631 mkv HD 720p ENG SUBBED GWC
Language: English
Size: 76.9 MB
Rating: 4.3
Category: Anime
Votes: 567
One Piece - 631 mkv HD 720p ENG SUBBED GWC
Files:
  • One Piece - 631 [HD 720p] [ENG SUBBED] [GWC].mkv (76.9 MB)


One Piece Episode 631 synopsys: After going all in in roulette, the thugs once again lie to the blind man about the results of the game, however this.

One Piece Episode 631 synopsys: After going all in in roulette, the thugs once again lie to the blind man about the results of the game, however this. The blind man ends up engaging in a battle with the thugs, ultimately leaving a massive hole in the floor of the restaurant with the thugs lying defeated within. Everyone wonders in awe about the blind mans powers. Sanji says he has an ability, and Zoro wonders what ability it is.

One Piece Episode 720 English Subbed. One Piece Episode 718 English Subbed.

You are watching One Piece Episode 631 Online at Animegg. Select a mirror and stream One Piece Episode 631 Subbed & Dubbed in HD. High Quality Anime Online at Animegg.

Опубликовано: 27 янв. 2014 г. One Piece Episode 631 English Subbed . One Piece - Boa Hancock finds out about Nami and Robin - Продолжительность: 1:24 Speireis Recommended for you. 1:24.

One Piece Episode 624 Smoker Vs Doflamingo Full Fight HD - Продолжительность: 2:30 xXAnime-KingXx Recommended for you. 2:30. Lord vs Everyone (Non (English - Продолжительность: 9:30 Floyd Fantastic Recommended for you. 9:30. Naruto vs Third Raikage Eng Dub - Продолжительность: 15:24 Anime Geek Recommended for you. 15:24.

Several bands of pirates were battling over the great hidden treasure, One Piece, which was left by the now legendary pirate captain, Gold Roger. There was a young boy who admired the pirates, his name was Monkey D. Luffy. One day, he mistakenly eats the devil's fruit and turns himself into a rubber human being.

One Piece - Episode 663: Luffy Astonished! The Man Who Inherits Ace's Will!

One Piece - 663 .mkv (8. 4 MB). Download.

ne+Piece+637+%5BHD+720p%5D+%5BENG+SUBBED%5D+%5BGWC%5D.

One Piece - 631 [HD 720p] [ENG SUBBED] [GWC]





FOLLOW ON FACEBOOK :





General
Format : Matroska
File size : 76.9 MiB
Duration : 20mn 44s
Overall bit rate mode : Variable
Overall bit rate : 518 Kbps
Writing application : mkvmerge v6.6.0 ('The Edge Of The In Between')
Video
Format : AVC
Format profile : [email protected]
Format settings, CABAC : Yes
Format settings, ReFrames : 11 frames
Duration : 20mn 44s
Bit rate : 452 Kbps
Width : 1 280 pixels
Height : 720 pixels
Display aspect ratio : 16:9
Frame rate : 29.970 fps
Stream size : 67.0 MiB (87%)
Title : One Piece - 631 [HD 720p] [ENG SUBBED] [GWC]
Language : English
Default : Yes
Forced : No
Audio
Format : Vorbis
Duration : 20mn 44s
Bit rate mode : Variable
Channel(s) : 2 channels
Sampling rate : 44.1 KHz
Stream size : 8.31 MiB (11%)
Writing library : aoTuV 20110424
Language : Japanese
Text
Format : UTF-8
Codec ID/Info : UTF-8 Plain Text
Title : [GWC]
Language : English

Images:
http://s20.postimg.org/fl6bb8ghp/OPC.jpg|http://s20.postimg.org/l0qsjtqex/ailscreenscib.png|http://img163.imageshack.us/img163/8710/54100788659511547411.gif|http://img713.imageshack.us/img713/6312/0ibx.jpg|http://img163.imageshack.us/img163/8710/54100788659511547411.gif|http://s21.postimg.org/d7ezolr5j/facebook_logo.png|http://img651.imageshack.us/img651/8905/saythanks.gif|http://imageshack.us/a/img16/3442/ncax.gif|http://img651.imageshack.us/img651/8905/saythanks.gif|http://s20.postimg.org/yqc6oob95/MEDII.jpg

Related at One Piece - 631 mkv:
© 2019 www.gphi.it | Contacts | DMCA | Privacy Policy