» » Code Geass: Akito the Exiled 2 EngDub
Language: English
Size: 712.0 MB
Rating: 4.6
Category: Anime
Votes: 483
Code Geass: Akito the Exiled 2 EngDub
Files:
  • [DigiMaza] Code Geass Akito the Exiled 2.mkv (712.0 MB)


View this message in English. Выбрать другой язык можно в списке ниже.

View this message in English. You're viewing YouTube in Russian. You can change this preference below.

Code Geass: Akito the Exiled (コードギアス 亡国のアキト Kōdo Giasu Bōkoku no Akito) is a theatrical OVA. It was officially announced in the bonus materials of Code Geass: The Miraculous Birthday. The new theatrical OVA is directed by Kazuki Akane (of Vision of Escaflowne and Noein: Mou Hitori no Kimi e fame) and once again features original character designs by CLAMP. It is a side-story that occurs between seasons one and two of Code Geass.

Code Geass: Akito the Exiled 2 (Sub) Movie.

Other name: Code Geass: Akito the Exiled 2 - The Torn-Up Wyvern; Code Geass: Boukoku no Akito 2 - Hikisakareshi Yokuryuu; Code Geass: Boukoku no Akito 2; コードギアス 亡国のアキト 第2章 引き裂かれし翼竜. Genres: Action, Mecha, Military, Movie. Date aired: Sep 14, 2013. Code Geass: Akito the Exiled 2 (Sub) Movie.

Anyone know when will the Episode 2 of Code Geass: Akito the Exiled will be uploaded online with English sub? .

Anyone know when will the Episode 2 of Code Geass: Akito the Exiled will be uploaded online with English sub? The Blu-Ray has already been released in Japan on December 25th. show more Anyone know when will the Episode 2 of Code Geass: Akito the Exiled will be uploaded online with English sub? The Blu-Ray has already been released in Japan on December 25th.

Code Geass: Akito the Exiled 2 - The Torn-Up Wyvern. Find this Pin and more on Code Geass by Neon Libra. Is this sub-only release of the Code Geass: Lelouch of the Rebellion: Movie II: Transgression (2018) worth your time and money? Let's find out! GuardianSoulBlade. What others are saying.

Watch Code Geass R2 Episode 2 English version online and free episodes. Chuubyou Gekihatsu Boy Episode 10 English Subbed. Anime Episode guide, Chapter Code Geass R2 Episode 2 English dubbed. Ginga Eiyuu Densetsu: Die Neue These - Seiran 3 Episode 3 English Subbed.

Code Geass R1 1. hirley. Code Geass - Nunnally in Wonderland. Code Geass R3 Akito the Exiled. Code Geass - Akito the Exiled - 0. kv (31. MiB). Code Geass R1 1. eass. kv (48. kv (34. kv (47. kv (53. Code Geass - Akito the Exiled.

Other name: Code Geass: Boukoku no Akito 1 - Yokuryuu wa Maiorita; コードギ . Among those selected for the rescue operation is Lieutenant Akito Hyuuga, known as "Hannibal's Ghost" due to his prowess on the battlefield.

Other name: Code Geass: Boukoku no Akito 1 - Yokuryuu wa Maiorita; コードギアス 亡国のアキト 第1章 翼竜は舞い降りた. Genres: Action, Dub, Mecha, Military, Movie, Sci-Fi. However, the supposed rescue mission becomes suicidal when, in an attempt to take out as many Britannians as possible, the commanding officer initiates the Knightmare's self-destruct sequence. In its aftermath, Akito finds that he is the last one standin. pisodes. Code Geass: Akito the Exiled 1 (Dub) Movie.

Code Geass: Akito the Exiled 2: The Torn-Up Wyvern [EngDub] x264 Download

Quote:

The war between Euro Britannia and the European Union continues. New orders are given to the W-0 Unit. To land in the middle of the enemy territory as a diversion. The pilots of the W-0 Unit consist only of the commanding officer, Leila, the only surviving Japanese from their last battle, Akito, and the three that escaped from the Eleven ghettos and lived in the underworld, Ryou, Yukiya, and Ayano. With everyone holding their respective expectations, the operation moves forward. On the other side in Euro Britannia, Shin, who made his benefactor commit suicide with the mysterious power of “Geass”, is appointed the leader of the Knights of St. Michael. As Shin steadily advances for the sake of his own ambition, he and his subordinates in the Ashura squad are given orders to deploy. The one that lives in order to fight, and the one that fights in order to live.

..::File Specs::..
General
Format : Matroska
Format version : Version 4 / Version 2
File size : 712 MiB
Duration : 59 min 57 s
Overall bit rate : 1 660 kb/s
Video
ID : 1
Format : AVC
Format/Info : Advanced Video Codec
Format profile : [email protected]
Format settings, CABAC : Yes
Format settings, ReFrames : 1 frame
Codec ID : V_MPEG4/ISO/AVC
Duration : 59 min 57 s
Bit rate : 1 466 kb/s
Width : 1 280 pixels
Height : 720 pixels
Display aspect ratio : 16:9
Frame rate mode : Constant
Frame rate : 23.976 (24000/1001) FPS
Color space : YUV
Chroma subsampling : 4:2:0
Bit depth : 8 bits
Scan type : Progressive
Bits/(Pixel*Frame) : 0.066
Stream size : 629 MiB (88%)
Default : Yes
Forced : No
Color range : Limited
Color primaries : BT.709
Transfer characteristics : BT.709
Matrix coefficients : BT.709
Audio
ID : 2
Format : AAC
Format/Info : Advanced Audio Codec
Format profile : LC
Codec ID : A_AAC
Duration : 59 min 57 s
Bit rate : 192 kb/s
Channel(s) : 2 channels
Channel positions : Front: L R
Sampling rate : 44.1 kHz
Frame rate : 43.066 FPS (1024 spf)
Compression mode : Lossy
Stream size : 82.3 MiB (12%)
..::ScreenShots::..
http://i.imgur.com/Qkf5wi0.png
http://i.imgur.com/N7o9aMn.png
http://i.imgur.com/kKBQYFb.png
================================================================
Seed Seed Seed Seed Seed Seed Seed Seed Seed Seed Seed Seed Seed
To direct download or Watch Online this file, Visit.
http://bit.ly/2qz6ATZ
Seed Seed Seed Seed Seed Seed Seed Seed Seed Seed Seed Seed Seed
================================================================

Images:
https://s23.postimg.org/br2yu2vrv/code-geass-akito-exiled-digimaza.jpg

Related at Code Geass: Akito the Exiled 2 :
© 2019 www.gphi.it | Contacts | DMCA | Privacy Policy