» » Naruto Shippuuden - 336 mkv 720p ENG-SUBBED GWC
Language: Japanese
Size: 89.3 MB
Rating: 4.5
Category: Anime
Votes: 086
Naruto Shippuuden - 336 mkv 720p ENG-SUBBED GWC
Files:
  • Naruto Shippuuden - 336 [720p] [ENG-SUBBED] [GWC].mkv (89.3 MB)


You can watch the Naruto and Naruto Shippuden Dubbed and Subbed Series free.

You can watch the Naruto and Naruto Shippuden Dubbed and Subbed Series free. Feel free to cancel before renewal to avoid charges or keep using if you like it and pay monthly subscription after month.

You will Watch Naruto Shippuden Episode 336 English Dubbed online for free episodes with HQ, high quality

You will Watch Naruto Shippuden Episode 336 English Dubbed online for free episodes with HQ, high quality. Stream anime Naruto Shippuden Season 15 Episode 16 Kabuto Yakushi Kabuto remembers when he first met Orochimaru when he and the rest of the Leaf Orphanage aided several wounded Hidden Leaf Ninja, the Sannin member seeing potential in the child despite not interested in becoming a ninja.

Episode336 Kabuto Yakushi.

Files: Naruto Shippuuden - 336 .mkv (8. MB).

Stream Naruto: Shippuuden English Dubbed and Subbed online for free! . Naruto: Shippuuden Episode 336 English Sub. Naruto: Shippuuden Episode 335 English Sub. Naruto: Shippuuden Episode 334 English Sub.

com Naruto Shippuuden - 336.mkv. to Naruto Shippuuden - 336 .mkv Anime Anime. org Naruto Shippuuden - 336 .mkv Video TV shows. com Naruto Shippuuden - 336 Anime.mkv Other.

All categories Anime - Anime Music Video - English-translated - ed - Raw Audio - Lossless - Lossy Literature - English-translated - ed - Raw Live Action.

All categories Anime - Anime Music Video - English-translated - ed - Raw Audio - Lossless - Lossy Literature - English-translated - ed - Raw Live Action - English-translated - Idol/Promotional Video - ed - Raw Pictures - Graphics - Photos Software - Applications - Games.

Naruto Shippuuden - 336 [720p] [ENG-SUBBED] [GWC]
Naruto: Shippuden Ep : 336 - Kabuto Yakushi






FOLLOW ON FACEBOOK :





MEDIA INFO :

General
Format : Matroska
File size : 89.3 MiB
Duration : 22mn 57s
Overall bit rate : 544 Kbps
Writing application : mkvmerge v6.5.0 ('Isn't she lovely')

Video
Format : AVC
Format profile : [email protected]
Format settings, ReFrames : 11 frames
Duration : 22mn 57s
Bit rate : 477 Kbps
Width : 1 280 pixels
Height : 720 pixels
Display aspect ratio : 16:9
Frame rate : 23.976 fps
Stream size : 78.3 MiB (88%)
Title : Naruto Shippuuden - 336 [720p] [ENG-SUBBED] [GWC]
Writing library : x264 core

Audio
Format : Vorbis
Duration : 22mn 57s
Bit rate mode : Variable
Channel(s) : 2 channels
Sampling rate : 44.1 KHz
Stream size : 9.20 MiB (10%)
Writing library : aoTuV

Text
Format : UTF-8
Codec ID : S_TEXT/UTF8
Codec ID/Info : UTF-8 Plain Text
Language : English

Images:
http://img560.imageshack.us/img560/2224/narutogwccover.jpg|http://s20.postimg.org/l0qsjtqex/ailscreenscib.png|http://img163.imageshack.us/img163/8710/54100788659511547411.gif|http://img823.imageshack.us/img823/954/duot.jpg|http://img163.imageshack.us/img163/8710/54100788659511547411.gif|http://s21.postimg.org/d7ezolr5j/facebook_logo.png|http://img651.imageshack.us/img651/8905/saythanks.gif|http://imageshack.us/a/img27/5276/i57.png|http://img651.imageshack.us/img651/8905/saythanks.gif|http://imageshack.us/a/img838/9531/dw1.gif|http://imageshack.us/a/img838/9531/dw1.gif|http://imageshack.us/a/img838/9531/dw1.gif|http://imageshack.us/a/img838/9531/dw1.gif

Related at Naruto Shippuuden - 336 mkv:
© 2019 www.gphi.it | Contacts | DMCA | Privacy Policy