» » Hunter X Hunter - 131 mp4 Hi10 720p ENG SUBBED GWC
Language: Japanese
Size: 123.5 MB
Rating: 4.2
Category: Anime
Votes: 401
Hunter X Hunter - 131 mp4 Hi10 720p ENG SUBBED GWC
Files:
  • Hunter X Hunter - 131 [Hi10 720p] [ENG SUBBED] [GWC].mp4 (123.5 MB)


x264-CTR (English Dubbed Dual Audio). Wish - Sanctuary (Hunter x Hunter Greed Island OVA OP).

x264-CTR (English Dubbed Dual Audio). GiB. 2019-08-25 20:56. 4. MiB. 2019-07-18 23:01.

Video Format : AVC Format profile : High [email protected] 720p] Writing library : x264 core.

Hunter X Hunter The Last Mission. ark:/13960/t2q57m28f.

Episode List: Hunter x Hunter. Hunter X Hunter 131 Subtitle Indonesia Animeindo. Status: Sub Indo ANIMEINDO. S-HD 1080p : Mediafire Tusfiles Solidfiles Mirror.

Please bookmark this domain and UNBLOCK on us ADBLOCK!!! We recieve too many complaints regarding to broken videos. If you are using an ADblock you probably won't be able to watch in HD and sometimes you will get errors like "No video with supported format and MIME type found". This is a bug of Adblock not our fault!! Please turn off your Adblocks to watch it without any trouble. Hunter x Hunter (2011) Episode 93 English Subbed.

To attain their own goals and desires, together the four of them take the Hunter Exam, notorious for its low success rate and high probability of death.

Hunter X Hunter - 131 [Hi10 720p] [ENG SUBBED] [GWC]

STORYLINE :
Gon is a youth who lives on Kujira Isle. His dream is to become a Hunter like his father, to search out lost treasures, artefacts, and mythical creatures.
Determined to become a professional Hunter willing to stake his life in challenging the unknown, he sets off on a journey and meets fellow Hunter wannabes Killua, Kurapika, and Leorio.



FOLLOW ON FACEBOOK :





General
Format : MPEG-4
Format profile : Base Media
File size : 123 MiB
Duration : 21mn 1s
Overall bit rate mode : Variable
Overall bit rate : 821 Kbps
Video
Format : AVC
Format profile : High [email protected]
Format settings, CABAC : Yes
Format settings, ReFrames : 10 frames
Duration : 21mn 0s
Bit rate : 745 Kbps
Width : 1 280 pixels
Height : 720 pixels
Display aspect ratio : 16:9
Frame rate mode : Variable
Frame rate : 23.976 fps
Stream size : 112 MiB (91%)
Title : Hunter X Hunter - 131 [Hi10 720p] [ENG SUBBED] [GWC]
Writing library : x264 core
Audio
Format : AAC
Format profile : HE-AAC / LC
Duration : 21mn 1s
Bit rate mode : Variable
Channel(s) : 2 channels
Sampling rate : 48.0 KHz / 24.0 KHz
Stream size : 10.8 MiB (9%)
Language : Japanese
Text
Format : Timed Text
Title : [GWC]
Language : English

Images:
http://i.imgur.com/TPxM6Wp.jpg|http://s20.postimg.org/l0qsjtqex/ailscreenscib.png|http://i.imgur.com/c6zXxLp.jpg|http://s21.postimg.org/d7ezolr5j/facebook_logo.png|http://i.imgur.com/FQ6bMc5.gif|http://i.imgur.com/9llPOMh.gif|http://i.imgur.com/FQ6bMc5.gif|http://s20.postimg.org/yqc6oob95/MEDII.jpg

Related at Hunter X Hunter - 131 mp4:
© 2019 www.gphi.it | Contacts | DMCA | Privacy Policy