» » Naruto Shippuuden - 353-354 mp4 Hi10 720p ENG-SUBBED GWC 2Episodes
Language: Japanese
Size: 212.0 MB
Rating: 4.9
Category: Anime
Votes: 874
Naruto Shippuuden - 353-354 mp4 Hi10 720p ENG-SUBBED GWC 2Episodes
Files:
  • Naruto Shippuuden - 353-354 (2Episodes) [Hi10 720p] [ENG-SUBBED] [GWC].mp4 (212.0 MB)


You are going to Watch Naruto Shippuden Episode 248 English dubbed online free episodes with HQ, high quality

You are going to Watch Naruto Shippuden Episode 248 English dubbed online free episodes with HQ, high quality. Stream Anime Naruto Shippuden Episode 248 Online English dub The Fourth Hokage's Death Match! Kushina successfully delivers Naruto but their celebration comes short when Madara suddenly appears, killing both Taji and Biwako and holds Naruto as a hostage.

You cannot download any of those files from here. bioshock infinite 1s, All That Remains 1s, Consenting Hubby 4s, spider man far from home p 4s, title: Clifford D. Simak Physician to the Universe 2s, title: Books LLC Fudge Series Otherwise Known as S 0s, fast and furious 2 in hindi 3s, nafi 3s, latest bluray 3s, ffdp 2s. 04s.

Naruto Shippuden Episode 2 English Dubbed The Akatsuki Makes Its Move.

Watch Streaming Anime Naruto Shippuden Episode 353 English Subbed online for Free in HD/High Quality. Seek back 10 seconds. Seek forward 10 seconds. Our players are mobile (HTML5) friendly, responsive with ChromeCast support. You can use your mobile device without any trouble.

download like song i. P3 format ← download video converted i. P4 format ← download video converted i. VI format ← download video WITHOUT conversion. Maryana Katic - Molim te zeno - ZG Speci. Sal De Sol - I Want Your Soul (Club Mix). Hataraku Saibou - 01 ᴴᴰ. Earth, Wind and Fire - Reasons lyrics. Jenise Lebron AsianTour 2016 Boracay Phi.

Naruto Shippuuden 720p Eng Sub HEVC

Naruto Shippuuden 720p Eng Sub HEVC. Naruto Shippuuden 720p Eng Sub HEVC. Download Naruto Shippuuden 720p Eng Sub HEVC. By Darklord On Mar 30, 2019 Last updated Jun 23, 2019 10,803. It has been two and a half years since Naruto Uzumaki left Konohagakure, the Hidden Leaf Village, for intense training following events which fueled his desire to be stronger. Now Akatsuki, the mysterious organization of elite rogue ninja, is closing in on their grand plan which may threaten the.

Naruto Shippuden Episode 359. ุมมอง 6685 ปีที่แล้ว. Naruto Shippuden Full Episode 350 English Dub Done by an anime loving family, who have sold everything we own to set out on a new life, follow our story on this channel.

Naruto Shippuden - 449 720p Eng Su. p4. Naruto Shippuuden - 486.

Naruto Shippuuden - 353-354 (2Episodes) [Hi10 720p] [ENG-SUBBED] [GWC]

STORYLINE :
Naruto Uzumaki, is a loud, hyperactive, adolescent ninja who constantly searches for approval and recognition, as well as to become Hokage, who is acknowledged as the leader and strongest of all ninja in the village.





FOLLOW ON FACEBOOK :





General
Format : MPEG-4
Format profile : Base Media
File size : 212 MiB
Duration : 41mn 21s
Overall bit rate mode : Variable
Overall bit rate : 717 Kbps
Video
Format : AVC
Format profile : High [email protected]
Format settings, CABAC : Yes
Format settings, ReFrames : 10 frames
Duration : 41mn 21s
Bit rate : 597 Kbps
Maximum bit rate : 4 385 Kbps
Width : 1 280 pixels
Height : 720 pixels
Display aspect ratio : 16:9
Frame rate mode : Variable
Frame rate : 23.976 fps
Stream size : 177 MiB (83%)
Title : Naruto Shippuuden - 353-354 (2Episodes) [Hi10 720p] [ENG-SUBBED] [GWC]
Writing library : x264 core
Audio
Format : AAC
Format profile : LC
Duration : 41mn 21s
Bit rate mode : Variable
Channel(s) : 2 channels
Sampling rate : 44.1 KHz
Stream size : 34.0 MiB (16%)
Language : Japanese
Text
Format : Timed Text
Duration : 41mn 20s
Title : [GWC]
Language : English

Images:
http://img560.imageshack.us/img560/2224/narutogwccover.jpg|http://s20.postimg.org/l0qsjtqex/ailscreenscib.png|http://img163.imageshack.us/img163/8710/54100788659511547411.gif|http://img577.imageshack.us/img577/2945/keqe.jpg|http://img163.imageshack.us/img163/8710/54100788659511547411.gif|http://s21.postimg.org/d7ezolr5j/facebook_logo.png|http://img651.imageshack.us/img651/8905/saythanks.gif|http://imageshack.us/a/img27/5276/i57.png|http://img651.imageshack.us/img651/8905/saythanks.gif|http://s20.postimg.org/yqc6oob95/MEDII.jpg

Related at Naruto Shippuuden - 353-354 mp4:
© 2019 www.gphi.it | Contacts | DMCA | Privacy Policy