» » Interstella 5555 - Leiji Matsumoto - Daft Punk XviD - Ac3 5.1
Language: English
Size: 895.3 MB
Rating: 4.9
Category: Anime
Votes: 670
Interstella 5555 - Leiji Matsumoto - Daft Punk XviD - Ac3 5.1
Files:
  • Interstella 5555.avi (895.3 MB)


Interstella 5555 (1080i compatible player required).

Interstella 5555 (1080i compatible player required).

Daft Punk leiji matsumoto 2001 Interstella 5555 Interstella stella stella interstella 5555 Arpegius arpegius interstella 5555 face to face last night i. .Interstella 5555 Music Video Digital Love By Daft Punk & Leiji Matsumoto.

Interstella 5555 Music Video Digital Love By Daft Punk & Leiji Matsumoto.

avi (89. MB). Description. Interstella 5555 The 5tory of the 5ecret 5tar 5ystem

avi (89. Interstella 5555 The 5tory of the 5ecret 5tar 5ystem. 13 Writing library : VirtualDub build 14328/release.

Daft Punk - The masked musicians themselves make a cameo appearance in "High Life". Many elements common to Matsumoto's stories, such as a romanticism of noble sacrifice and remembrance of fallen friends, appear in Interstella 5555. As detailed in the insert included with the 2003 DVD, the idea for Interstella 5555 formed during the early Discovery recording sessions. Daft Punk revealed in an interview that Captain Harlock was a great influence on them in their childhood. They also stated, "The music we have been making must have been influenced at some point by the shows we were watching when we were little kids.

The Euro-electro-pop of Daft Punk is married to an epic sci-fi story line in this ambitious anime project conceived by the band, Manga legend Leiji Matsumoto, and director Kazuhisa Takenouchi. Interstella 5555: The 5tory of The 5ecret 5tar System involves the plight of talented musicians from a neighboring galaxy who are brought to earth by an evil corporation. Stripped of their immense talents, they are turned into a band of emotionless, hit-churning automatons named The Crescendolls.

Daft Punk's Interstella 5555 by Jeffrey "Chamba" Cruz - Best Art Ever (Thi. his is piece long overdue. Convention print, most likely, but above all simply a tribute to a dope musical duo, this particular albu. Enter the Mushroom Kingdom. Daft Punk's Interstella 5555 by Jeffrey "Chamba" Cruz - Best Art Ever (This Week) 0. 8.

Find many great new & used options and get the best deals for Daft Punk Interstella 5555 (Leijii Matsumoto) - Anime . Similar items to consider.

Similar items to consider.

Manifesto Interstella 5555 Daft Punk Matsumoto Toei Goldrake Jeeg Mazinger S11.

Shop with confidence.

Interstella 5555
The 5tory of the 5ecret 5tar 5ystem

Format/Info : Audio Video Interleave
File size : 895 MiB
Duration : 1h 5mn
Overall bit rate : 1 920 Kbps
Writing application : VirtualDubMod 1.4.13
Writing library : VirtualDub build 14328/release
Video
ID : 0
Format : MPEG-4 Visual
Format profile : Advanced [email protected]
Format settings, BVOP : Yes
Format settings, QPel : No
Format settings, GMC : No warppoints
Format settings, Matrix : Default (H.263)
Codec ID : XVID
Codec ID/Hint : XviD
Duration : 1h 5mn
Bit rate : 1 686 Kbps
Width : 640 pixels
Height : 480 pixels
Display aspect ratio : 4:3
Frame rate : 25.000 fps
Color space : YUV
Chroma subsampling : 4:2:0
Bit depth : 8 bits
Scan type : Progressive
Bits/(Pixel*Frame) : 0.220
Stream size : 786 MiB (88%)
Writing library : XviD 1.2.1 (UTC 2008-12-04)
Audio
ID : 1
Format : AC-3
Format/Info : Audio Coding 3
Mode extension : CM (complete main)
Codec ID : 2000
Duration : 1h 5mn
Bit rate mode : Constant
Bit rate : 224 Kbps
Channel(s) : 6 channels
Channel positions : Front: L C R, Side: L R, LFE
Sampling rate : 48.0 KHz
Bit depth : 16 bits
Stream size : 104 MiB (12%)
Alignment : Split accross interleaves
Interleave, duration : 40 ms (1.00 video frame)
Interleave, preload duration : 500 ms


Images:
http://img834.imageshack.us/img834/5364/dvda.jpg|http://img225.imageshack.us/img225/9269/vlcsnap2010110519h37m24.png|http://img530.imageshack.us/img530/2495/vlcsnap2010110519h38m21.png

Related at Interstella 5555 - Leiji Matsumoto - Daft Punk :
© 2019 www.gphi.it | Contacts | DMCA | Privacy Policy