» » Flushed Away 2006 HDTV 720p264-inam7Ash Wall e
Language: English
Size: 2.3 GB
Rating: 4.8
Category: Anime
Votes: 657
Flushed Away 2006 HDTV 720p264-inam7Ash Wall e
Files:
Cover
  • Cover.jpg (82.7 KB)
Sample
  • Flushed Away 2006 HDTV 720p264 ~inam7Ash Wall.e.mkv (23.0 MB)
ScreenShot
  • bscap0011.jpg (182.8 KB)
  • bscap0012.jpg (177.7 KB)
  • bscap0004.jpg (141.4 KB)
  • bscap0008.jpg (123.5 KB)
  • bscap0001.jpg (115.7 KB)
  • bscap0009.jpg (112.4 KB)
  • bscap0005.jpg (89.2 KB)
  • bscap0006.jpg (74.7 KB)
  • bscap0002.jpg (73.2 KB)
  • bscap0003.jpg (72.4 KB)
  • Flushed Away 2006 HDTV 720p264 ~inam7Ash Wall.e.mkv (2.3 GB)
  • Flushed.Away Indonesian.srt (85.4 KB)
  • Flushed Away eng.srt (75.8 KB)
  • Flushed.Away spanish.srt (69.7 KB)
  • Flushed.Away Arabic.srt (69.4 KB)
  • Join Facebook.txt (0.1 KB)




General
Complete name : Flushed Away 2006 HDTV 720p264~inam7Ash Wall.e
Format : Matroska
Format version : Version 2
File size : 2.29 GiB
Duration : 1h 21mn
Overall bit rate : 4 045 Kbps
Movie name : flushed away[ Dual Audio][ English hindi] inam7/Ash wall.e
Encoded date : UTC 2012-01-07 05:33:35
Writing library : libebml v1.2.2 + libmatroska v1.3.0
Video
ID : 1
Format : AVC
Format/Info : Advanced Video Codec
Format profile : [email protected]
Format settings, CABAC : Yes
Format settings, ReFrames : 7 frames
Muxing mode : Header stripping
Codec ID : V_MPEG4/ISO/AVC
Duration : 1h 21mn
Bit rate : 3 406 Kbps
Width : 1 280 pixels
Height : 680 pixels
Display aspect ratio : 1.882
Frame rate : 25.000 fps
Color space : YUV
Chroma subsampling : 4:2:0
Bit depth : 8 bits
Scan type : Progressive
Stream size : 1.88 GiB (82%)
Title : INAM70
Writing library : x264 core 57 svn-721M
Language : English
Default : Yes
Forced : No
Audio #1
ID : 2
Format : AC-3
Format/Info : Audio Coding 3
Mode extension : CM (complete main)
Muxing mode : Header stripping
Codec ID : A_AC3
Duration : 1h 21mn
Bit rate mode : Constant
Bit rate : 448 Kbps
Channel(s) : 6 channels
Channel positions : Front: L C R, Side: L R, LFE
Sampling rate : 48.0 KHz
Bit depth : 16 bits
Compression mode : Lossy
Stream size : 260 MiB (11%)
Title : INAM70
Language : English
Default : No
Forced : No
Audio #2
ID : 3
Format : AC-3
Format/Info : Audio Coding 3
Mode extension : CM (complete main)
Muxing mode : Header stripping
Codec ID : A_AC3
Duration : 1h 21mn
Bit rate mode : Constant
Bit rate : 192 Kbps
Channel(s) : 2 channels
Channel positions : Front: L R
Sampling rate : 48.0 KHz
Bit depth : 16 bits
Compression mode : Lossy
Stream size : 111 MiB (5%)
Title : INAM70
Language : Hindi
Default : Yes
Forced : No

http://www.imdb.com/title/tt0424095/


[center]








http://www.facebook.com/groups/inam70/
http://www.facebook.com/inam77


Images:
http://img26.imageshack.us/img26/641/8d4c9847.png|http://img11.imageshack.us/img11/7973/b1ba07cc.png|http://lookpic.com/i/128/SqnbZJQR.png|http://img155.imageshack.us/img155/5459/75625684.png|http://img809.imageshack.us/img809/6494/bscap0011p.jpg|http://img9.imageshack.us/img9/1160/bscap0004qd.jpg|http://img607.imageshack.us/img607/2733/bscap0006x.jpg|http://img265.imageshack.us/img265/2144/bscap0003vs.jpg|http://img254.imageshack.us/img254/1294/bscap0005vu.jpg|http://img804.imageshack.us/img804/4033/bscap0008k.jpg|http://img88.imageshack.us/img88/9063/40646838523524569352.gif|http://img835.imageshack.us/img835/9963/facebookbuttono.png|http://lookpic.com/O/i2/1563/qfVKknjO.gif|http://i1211.photobucket.com/albums/cc436/dreamernlady/seed-1-1.gif|http://www.pix2links.com/images/16070884158015913600.gif

Related at Flushed Away 2006 HDTV 720p264-inam7Ash Wall e:
© 2019 www.gphi.it | Contacts | DMCA | Privacy Policy