» » The Outpost Season 2 eps 11-13 revittony
Language: English
Size: 987.6 MB
Rating: 4.8
Category: Anime
Votes: 677
The Outpost Season 2 eps 11-13 revittony
Files:
The Outpost Season 2 eps 11-13
  • S02E11 Nothing Short of Heroic.mkv (411.5 MB)
  • Media info.txt (1.5 KB)
  • S02E12 In the Worst Corner of My Memory.mkv (242.9 MB)
  • S02E13 This Is Our Outpost.mkv (333.2 MB)


Download The Outpost Season 2 eps 11-13. revittony torrent or any other torrent from the Video TV shows.

Download The Outpost Season 2 eps 11-13. Format profile : Base Media Codec ID : isom (isom/iso2/avc1/mp41) Overall bit rate : 1 349 kb/s Encoded date : UTC 2019-07-12 10:25:05 Tagged date : UTC 2019-07-12 10:25:05 Writing application : Lavf58.

Your score has been saved for This Is Our Outpost.

Episode 13: This Is Our Outpost. The Flash - Season 6. EPS 8. Vikings - Season 6. EPS 2. Arrow - Season 8. EPS 7. The Resident - Season 3. EPS 9. The Rookie - Season 2. Treadstone - Season 1.

سْـمِ اللهِ الرَّحْمَنِ الرَّحِيْم The Outpost The Outpost 2X11 The Outpost S2E11 The Outpost Cast The Outpost x Watchcinemax The Outpost The CW The Outpost Ep. 1 The Outpost Season 2 The Outpost Episode 11 The Outpost Season 2 Episode 11 Watch The Outpost. 1 The Outpost Season 2 The Outpost Episode 11 The Outpost Season 2 Episode 11 Watch The Outpost Season 2 Episode 11 Online. co/i7Yyj9APjk?amp 1?/The CW.

Timeless Season 2 eps11-12 (47. 7 MB). Media info. txt Original File names. 13 minutes ago. tales from zambia. 2 KB. Original File names. 248 B. S02E11 The Miracle of Christmas (1. kv. 23. 4 MB. S02E12 The Miracle of Christmas (2. 24. 3 MB. Description. txt S02E11 The Miracle of Christmas (1. kv S02E12 The Miracle of Christmas (2. Tags. yify italian 720p 1080p Hindi 480p french x264.

The Outpost - Season 2. Trailer. The Hotel Inspector - Season 13. Eps10. At Home with Amy Sedaris - Season 2. Eps128. Family Feud (nz) - Season 1. Eps17. Gary Unmarried season 2. Eps9. Kendra on Top season 4.

The Outpost S02 E11 (season 02 episode 11) watch online. The Outpost S02 E12 (season 02 episode 12) watch online. The Outpost Season 2 episode 13". MOVIES.

Talon tries to outmaneuver her new rival; Gwynn struggles to maintain control of the Outpost; Tobin makes an outrageous proposal; The Mistress bitterly reunites with a close relative.

We Only Kill to Survive. Talon tries to outmaneuver her new rival; Gwynn struggles to maintain control of the Outpost; Tobin makes an outrageous proposal; The Mistress bitterly reunites with a close relative. S2, Ep3. 25 Jul. 2019.

https://www.imdb.com/title/tt7612548
Format profile : Base Media
Codec ID : isom (isom/iso2/avc1/mp41)
Overall bit rate : 1 349 kb/s
Encoded date : UTC 2019-07-12 10:25:05
Tagged date : UTC 2019-07-12 10:25:05
Writing application : Lavf58.20.100
Video
ID : 1
Format : AVC
Format/Info : Advanced Video Codec
Format profile : [email protected]
Format settings : CABAC / 5 Ref Frames
Format settings, CABAC : Yes
Format settings, Reference frames : 5 frames
Codec ID : avc1
Codec ID/Info : Advanced Video Coding
Duration : 41 min 45 s
Bit rate : 1 100 kb/s
Width : 720 pixels
Height : 400 pixels
Display aspect ratio : 16:9
Frame rate mode : Constant
Frame rate : 23.976 (24000/1001) FPS
Color space : YUV
Chroma subsampling : 4:2:0
Bit depth : 8 bits
Scan type : Progressive
Bits/(Pixel*Frame) : 0.159
Stream size : 325 MiB (81%)
Writing library : x264 core 152 r2851M ba24899
Encoded date : UTC 2019-07-12 10:25:05
Tagged date : UTC 2019-07-12 10:25:05
Codec configuration box : avcC
Audio
ID : 2
Format : AAC LC
Format/Info : Advanced Audio Codec Low Complexity
Codec ID : mp4a-40-2
Duration : 41 min 45 s
Bit rate mode : Constant
Bit rate : 256 kb/s
Channel(s) : 2 channels
Channel layout : L R
Sampling rate : 48.0 kHz
Frame rate : 46.875 FPS (1024 SPF)
Compression mode : Lossy
Stream size : 76.5 MiB (19%)
Language : English
Default : Yes
Alternate group : 1
Encoded date : UTC 2019-07-12 10:25:05
Tagged date : UTC 2019-07-12 10:25:05

Images:

Related at The Outpost Season 2 eps 11-13 revittony:
© 2019 www.gphi.it | Contacts | DMCA | Privacy Policy