» » Tokyo Ghoul Season 1 720p x264 EngDub
Language: English
Size: 3.0 GB
Rating: 4.9
Category: Anime
Votes: 535
Tokyo Ghoul Season 1 720p x264 EngDub
Files:
Tokyo Ghoul (EngDub)
  • [DigiMaza.com] Tokyo Ghoul S01E01.mkv (273.2 MB)
  • [DigiMaza.com] Tokyo Ghoul S01E12.mkv (260.8 MB)
  • [DigiMaza.com] Tokyo Ghoul S01E11.mkv (254.8 MB)
  • [DigiMaza.com] Tokyo Ghoul S01E09.mkv (253.2 MB)
  • [DigiMaza.com] Tokyo Ghoul S01E10.mkv (252.1 MB)
  • [DigiMaza.com] Tokyo Ghoul S01E07.mkv (251.8 MB)
  • [DigiMaza.com] Tokyo Ghoul S01E05.mkv (251.8 MB)
  • [DigiMaza.com] Tokyo Ghoul S01E04.mkv (251.6 MB)
  • [DigiMaza.com] Tokyo Ghoul S01E06.mkv (251.0 MB)
  • [DigiMaza.com] Tokyo Ghoul S01E08.mkv (250.7 MB)
  • [DigiMaza.com] Tokyo Ghoul S01E03.mkv (250.1 MB)
  • [DigiMaza.com] Tokyo Ghoul S01E02.mkv (249.7 MB)
  • Read Me.txt (0.5 KB)


All categories Anime - Anime Music Video - English-translated - ed - Raw Audio - Lossless - Lossy Literature - English-translated - ed - Raw Live Action.

All categories Anime - Anime Music Video - English-translated - ed - Raw Audio - Lossless - Lossy Literature - English-translated - ed - Raw Live Action - English-translated - Idol/Promotional Video - ed - Raw Pictures - Graphics - Photos Software - Applications - Games. moe/?nick Hifumi-chan) (irc://irc.

Details for this torrent. Tokyo Ghoul Season 1 (EngDub) 720p x264 Download. Type: Video HD - TV shows. Format : Matroska Format version : Version 4, Version 2 Duration : 26 min 8 s Overall bit rate : 1 461 kb/s.

Posted in English-translated. Posted in English-translated.

Tokyo Ghoul Complete Season 1 (EngDub) 720p x264 Download. Quote: Ken Kaneki is a bookworm college student who meets a girl names Rize at a cafe he frequents. mkv (27. MB). Tokyo Ghoul S01E12. mkv (26. Tokyo Ghoul S01E11. mkv (25. Tokyo Ghoul S01E09. Tokyo Ghoul S01E10. Tokyo Ghoul S01E07. Tokyo Ghoul S01E05.

Watch Streaming Anime Tokyo Ghoul Episode 1 English Dubbed online for Free in HD/High Quality. Our players are mobile (HTML5) friendly, responsive with ChromeCast support. You can use your mobile device without any trouble.

Advertisement: Your video will resume shortly. Tokyo Ghoul Season 1 Episode 9 English Dubbed. Copy Video URL. Copy Video URL From Current Time.

You will Watch Tokyo Ghoul Season 1 Episode 1 online English Subbed for free episodes with HQ, high quality. Stream anime Tokyo Ghoul Episode 1 English Subbed Tragedy. Ken Kaneki is a young man who befriends the beautiful and enigmatic Rize Kamishiro unaware that she is a ghoul.

In Tokyo, the shy student Kaneki Ken dates the girl Kamishiro Rize and while in a lonely park, she attacks him . Kaneki escapes but soon he learns that he has become a ghoul

In Tokyo, the shy student Kaneki Ken dates the girl Kamishiro Rize and while in a lonely park, she attacks him since she is a flesh-eater ghoul. Kaneki escapes but soon he learns that he has become a ghoul. He befriends a group of peaceful ghouls and tries to live his new life with them. However they are hunted down by relentless two police officers from the Ghoul Division in charge of eradicate ghouls from their district. 1080P BLURAY X264 AC3 . VERSION.

Tokyo Ghoul – re English Dubbed 2018 (Season 3) 720p Complete Uncut All Episodes 1-12 x264 H. 720p Hollywood Dub 1080p Punjabi Movies South Dubbed 300mb Movies High Definition Quality (Bluray 720p 1080p 300MB MKV and Full HD Movies or watch online at katmoviehd.

Tokyo Ghoul Complete Season 1 (EngDub) 720p x264 Download

Quote:

Ken Kaneki is a bookworm college student who meets a girl names Rize at a cafe he frequents. They're the same age and have the same interests, so they quickly become close. Little does Kaneki know that Rize is a ghoul - a kind of monster that lives by hunting and devouring human flesh. When part of her special organ - "the red child" - is transplanted into Kaneki, he becomes a ghoul himself, trapped in a warped world where humans are not the top of the food chain.

..::File Specs::..
General
Format : Matroska
Format version : Version 4 / Version 2
Duration : 26 min 8 s
Overall bit rate : 1 461 kb/s
Video
ID : 1
Format : AVC
Format/Info : Advanced Video Codec
Format profile : [email protected]
Format settings, CABAC : Yes
Format settings, ReFrames : 2 frames
Codec ID : V_MPEG4/ISO/AVC
Duration : 26 min 8 s
Bit rate : 1 280 kb/s
Width : 1 920 pixels
Height : 1 080 pixels
Display aspect ratio : 16:9
Frame rate mode : Constant
Frame rate : 23.976 (24000/1001) FPS
Color space : YUV
Chroma subsampling : 4:2:0
Bit depth : 8 bits
Scan type : Progressive
Bits/(Pixel*Frame) : 0.026
Stream size : 237 MiB (87%)
Default : Yes
Forced : No
Color range : Limited
Audio
ID : 2
Format : AAC
Format/Info : Advanced Audio Codec
Format profile : LC
Codec ID : A_AAC
Duration : 26 min 8 s
Bit rate : 192 kb/s
Channel(s) : 2 channels
Channel positions : Front: L R
Sampling rate : 44.1 kHz
Frame rate : 43.066 FPS (1024 spf)
Compression mode : Lossy
Stream size : 35.9 MiB (13%)
..::ScreenShots::..
https://s1.postimg.org/5ziu69b5b/vlcsnap-2017-07-07-00h01m42s846.png
https://s1.postimg.org/zfyg8ohin/vlcsnap-2017-07-07-00h02m07s170.png
https://s1.postimg.org/5coiuh3n3/vlcsnap-2017-07-07-00h02m37s045.png
================================================================
Seed Seed Seed Seed Seed Seed Seed Seed Seed Seed Seed Seed Seed
To direct download or Watch Online this file, Visit.
http://bit.ly/2qz6ATZ
Seed Seed Seed Seed Seed Seed Seed Seed Seed Seed Seed Seed Seed
================================================================

Images:

Related at Tokyo Ghoul Season 1 720p x264:
Comments 2
Longitude Temporary
nice thanks even at 0 seeders and leachers i can download it at decent speed
Zulkishicage
Thanks.
© 2019 www.gphi.it | Contacts | DMCA | Privacy Policy