» » Dragon Ball GT Season 1 Black Star Dragon Ball Saga English Dub 720p K3NNY
Language: English
Size: 2.8 GB
Rating: 4.0
Category: Anime
Votes: 424
Dragon Ball GT Season 1 Black Star Dragon Ball Saga English Dub 720p K3NNY
Files:
  • Dragon Ball GT (Dub) Episode 001 - Watch Dragon Ball GT (Dub) Episode 001 online in high quality.MP4 (232.4 MB)
  • Dragon Ball GT (Dub) Episode 006 - Watch Dragon Ball GT (Dub) Episode 006 online in high quality.MP4 (220.0 MB)
  • Dragon Ball GT (Dub) Episode 003 - Watch Dragon Ball GT (Dub) Episode 003 online in high quality.MP4 (201.5 MB)
  • Dragon Ball GT (Dub) Episode 013 - Watch Dragon Ball GT (Dub) Episode 013 online in high quality.MP4 (195.0 MB)
  • Dragon Ball GT (Dub) Episode 011 - Watch Dragon Ball GT (Dub) Episode 011 online in high quality.MP4 (193.7 MB)
  • Dragon Ball GT (Dub) Episode 008 - Watch Dragon Ball GT (Dub) Episode 008 online in high quality.MP4 (191.7 MB)
  • Dragon Ball GT (Dub) Episode 012 - Watch Dragon Ball GT (Dub) Episode 012 online in high quality.MP4 (191.1 MB)
  • Dragon Ball GT (Dub) Episode 004 - Watch Dragon Ball GT (Dub) Episode 004 online in high quality.MP4 (188.0 MB)
  • Dragon Ball GT (Dub) Episode 002 - Watch Dragon Ball GT (Dub) Episode 002 online in high quality.MP4 (185.2 MB)
  • Dragon Ball GT (Dub) Episode 010 - Watch Dragon Ball GT (Dub) Episode 010 online in high quality.MP4 (185.2 MB)
  • Dragon Ball GT (Dub) Episode 015 - Watch Dragon Ball GT (Dub) Episode 015 online in high quality.MP4 (182.0 MB)
  • Dragon Ball GT (Dub) Episode 007 - Watch Dragon Ball GT (Dub) Episode 007 online in high quality.MP4 (181.7 MB)
  • Dragon Ball GT (Dub) Episode 009 - Watch Dragon Ball GT (Dub) Episode 009 online in high quality.MP4 (180.9 MB)
  • Dragon Ball GT (Dub) Episode 014 - Watch Dragon Ball GT (Dub) Episode 014 online in high quality.MP4 (180.6 MB)
  • Dragon Ball GT (Dub) Episode 005 - Watch Dragon Ball GT (Dub) Episode 005 online in high quality.MP4 (178.4 MB)


Stream Anime Dragon Ball GT Episode 1 Online English dub A Devastating Wish. After Pilaf leaves, King Kai tells Goku that the only way he can return to normal is by finding the Black Star Dragon Balls, which are now scattered throughout the galaxy.

Stream Anime Dragon Ball GT Episode 1 Online English dub A Devastating Wish. As Goku and Uub fight inside Dende's lookout, Emperor Pilaf scales the outside of the lookout, and sneaks in to the inner chamber, unnoticed. He finds the Black Star Dragon Balls, and summons the dragon. He is interrupted by Goku.

Various formats from 240p to 720p HD (or even 1080p). Genres: Action, Adventure, Comedy, Dub, Fantasy, Martial Arts, Shounen, Super Power. Date aired: Jul 5, 2015 to Mar 25, 2018. Status: Completed Views: 25,051,445 Bookmark. Summary: Seven years after the events of Dragon Ball Z, Earth is at peace, and its people live free from any dangers lurking in the universe.

Looking To Watch Dragon Ball GT Anime For Free? Watch english dubbed at AnimeKisa. Over time, they encounter foes like Baby, Super 17, and the invincible Shadow Dragons

Looking To Watch Dragon Ball GT Anime For Free? Watch english dubbed at AnimeKisa. Over time, they encounter foes like Baby, Super 17, and the invincible Shadow Dragons. Taking place 10 years after the final Dragonball Z story, Pilaf finally manages to get all 7 dragonballs and makes a wish. Unfortunately for Pilaf, he gets flustered by the presence of Goku and wishes for Goku to be a child again so that Pilaf could "teach him a lesson. Pilaf gets his wish, and Goku is off on an interstellar trip to gather the 7 "Black Star Dragonballs" that can reverse the wish and return him to adulthood.

Dragon Ball GT is the third anime series in the Dragon Ball franchise and a sequel to the Dragon Ball Z anime series. Produced by Toei Animation, the series premiered in Japan on Fuji TV on February 7, 1996, spanning 64 episodes until its conclusion on November 19, 1997

Dragon Ball GT 1. GB. DRAGON BALL Xenoverse 2 for Nintendo Switch p2bt.

Dragon Ball GT 1. Remember to include the full url in your complaint.

Dragon Ball GT (Dub) Episode 001 - Watch Dragon Ball GT (Dub) Episode 001 online in high quality. You will be redirected in 3 seconds. MP4 (23. MB). Dragon Ball GT (Dub) Episode 006 - Watch Dragon Ball GT (Dub) Episode 006 online in high quality. MP4 (22. Dragon Ball GT (Dub) Episode 003 - Watch Dragon Ball GT (Dub) Episode 003 online in high quality. MP4 (20. Dragon Ball GT (Dub) Episode 013 - Watch Dragon Ball GT (Dub) Episode 013 online in high quality.

The Dragon Balls have been strewn everywhere and he must find them all . Goku embarks on the most important journey he has ever faced with the universe in grave danger.

The Dragon Balls have been strewn everywhere and he must find them all before the world meets its en. and the fate of the planet Earth itself. The Dragon Balls have been strewn everywhere and he must find them all before the world meets its end. Genre: Anime & Manga.

Dragon Ball GT: Black Star Dragon Ball Saga.

INFOHASH : 4B71C197728C85ED021125FB1613054A4C0903ED

Black Star Dragon Ball Saga








Video
ID : 1
Format : AVC
Format/Info : Advanced Video Codec
Format profile : [email protected]
Format settings, CABAC : Yes
Format settings, ReFrames : 1 frame
Codec ID : avc1
Codec ID/Info : Advanced Video Coding
Duration : 18mn 45s
Bit rate : 1 154 Kbps
Maximum bit rate : 6 542 Kbps
Width : 960 pixels
Height : 720 pixels
Display aspect ratio : 4:3
Frame rate mode : Constant
Frame rate : 23.976 fps
Color space : YUV
Chroma subsampling : 4:2:0
Bit depth : 8 bits
Scan type : Progressive
Bits/(Pixel*Frame) : 0.070
Stream size : 155 MiB (86%)
Audio
ID : 2
Format : AAC
Format/Info : Advanced Audio Codec
Format profile : LC
Codec ID : 40
Duration : 18mn 45s
Bit rate mode : Variable
Bit rate : 192 Kbps
Maximum bit rate : 203 Kbps
Channel(s) : 2 channels
Channel positions : Front: L R
Sampling rate : 44.1 KHz
Compression mode : Lossy
Stream size : 25.8 MiB (14%)

Images:
http://images.rapgenius.com/097127f7585a4285b6a33d19a45ed282.1000x500x1.jpg|http://images6.fanpop.com/image/polls/2000/2394_1358612542049_full.jpg|http://icons.iconarchive.com/icons/aaron-sinuhe/series-season-folder/256/season-1-icon.png|http://i1.someimage.com/cccfDxf.jpg|http://i1.someimage.com/S7THuRB.jpg|http://i1.someimage.com/a3oXwqH.jpg|http://i1.someimage.com/WFvk3Gp.jpg|http://i1.someimage.com/5UntLLC.jpg

Related at Dragon Ball GT Season 1 Black Star Dragon Ball Saga :
© 2019 www.gphi.it | Contacts | DMCA | Privacy Policy