» » One Piece - 642 mp4 HD 720p ENG SUBBED GWC
Language: Japanese
Size: 94.1 MB
Rating: 4.6
Category: Anime
Votes: 553
One Piece - 642 mp4 HD 720p ENG SUBBED GWC
Files:
  • One Piece - 642 [HD 720p] [ENG SUBBED] [GWC].mp4 (94.1 MB)


You are going to Watch One Piece Episode 642 English subbed online free episodes with HQ, high quality. There are seperated players and you are watching on Player 1. Also you can find HTML5/Mp4 player on the second player. Tried All Players and None Works.

You are going to Watch One Piece Episode 642 English subbed online free episodes with HQ, high quality. Stream Anime One Piece Episode 642 Online English sub The Strata.

Home One Piece English Subbed One Piece Episode 642 English Subbed. Watch One Piece Episode English Subbed Online at onepiece360. Streaming in high quality and Download anime episodes for free

Home One Piece English Subbed One Piece Episode 642 English Subbed. One Piece Episode 642 English Subbed. by admin April 27, 2014. Streaming in high quality and Download anime episodes for free. Watch One Piece Episode in High HD Quality online on ww. nepiece360. You Are watching One Piece Episode. Episode 642 in the TV Anime Series One Piece.

Release Date : 2019-08-09 Genres : Animation, Action, Adventure One Piece: Stampede is a stand-alone film that celebrates the anime's 20th Anniversary and takes place outside the canon of the "One Piece" TV series.

ly/30KPZtM Release Date : 2019-08-09 Genres : Animation, Action, Adventure One Piece: Stampede is a stand-alone film that celebrates the anime's 20th Anniversary and takes place outside the canon of the "One Piece" TV series. 720p/1080p!! HD One Piece: Stampede (2019) Watch FUll Movie Online Subs.

Watch One Piece Episode 642 AnimeSubHD English Subbed in H. Stream One Piece Episode 642 Sub HD at AnimeSubHD. Episode 720. Episode 719. Episode 718.

Watch One Piece Episode 642 AnimeSubHD English Subbed in HD. Start watching One Piece Episode 642 English Sub in High Definition at AnimeSubHD.

One Piece Episode 642 synopsys: Law and Caesar Clown are waiting for Doflamingo at the rendezvous .

Info: Hi we would like to thanks to all of loyal visitors we salute you! to return the favor, most of episode comes with HD button, You can select 360p,720p,1080p on some old and latest episodes watchop will bring the best watching one piece experience to all of you. we denied to use video advertising we know you.

You cannot download any of those files from here. title:6 monsters and men 1s, dark fire 1s, City. S01E09 2s, derek truck 1s, 긴생머리녀 1s, title: Hora Zulu Me duele la boca de decirlo 2s, avi love 1s, title: kurt vonneguts indianapolis writers roots 2 2s, Arisa Yukine 2s, the hunger game1 2s. 02s.

Bila Video Tidak Dapat Diputar, Gunakan Video Mirror Dibawah Ini. SD. Status: Sub Indo ANIMEINDO. HD.

One Piece - 642 [HD 720p] [ENG SUBBED] [GWC]

STORYLINE :
It was a time when pirates ruled the seas. Several bands of pirates were battling over the great hidden treasure, One Piece, which was left by the now legendary pirate captain, Gold Roger. There was a young boy who admired the pirates, his name was Monkey D. Luffy. One day, he mistakenly eats the devil's fruit and turns himself into a rubber human being.
Ten years have passed since that incident. Luffy sets out to sail all alone. He sets out to become a great pirate captain and that's when his great adventure begins. "I'm going to be the Pirate King! I'm going to get One Piece!".





FOLLOW ON FACEBOOK :





General
Format : MPEG-4
Format profile : Base Media
File size : 94.1 MiB
Duration : 20mn 37s
Overall bit rate mode : Variable
Overall bit rate : 638 Kbps
Video
Format : AVC
Format profile : [email protected]
Format settings, CABAC : Yes
Format settings, ReFrames : 10 frames
Duration : 20mn 37s
Bit rate : 589 Kbps
Maximum bit rate : 3 817 Kbps
Width : 1 280 pixels
Height : 720 pixels
Display aspect ratio : 16:9
Frame rate : 29.970 fps
Stream size : 86.8 MiB (92%)
Title : One Piece - 642 [HD 720p] [ENG SUBBED] [GWC]
Language : English
Audio
Format : AAC
Format profile : HE-AAC / LC
Duration : 20mn 37s
Bit rate mode : Variable
Channel(s) : 2 channels
Sampling rate : 44.1 KHz / 22.05 KHz
Stream size : 6.72 MiB (7%)
Language : Japanese
Text
Format : Timed Text
Title : [GWC]
Language : English

Images:
http://i.imgur.com/l26mJd6.jpg|http://s20.postimg.org/l0qsjtqex/ailscreenscib.png|http://img163.imageshack.us/img163/8710/54100788659511547411.gif|http://img842.imageshack.us/img842/9930/8h18.jpg|http://img163.imageshack.us/img163/8710/54100788659511547411.gif|http://s21.postimg.org/d7ezolr5j/facebook_logo.png|http://img651.imageshack.us/img651/8905/saythanks.gif|http://imageshack.us/a/img16/3442/ncax.gif|http://img651.imageshack.us/img651/8905/saythanks.gif|http://s20.postimg.org/yqc6oob95/MEDII.jpg

Related at One Piece - 642 mp4:
© 2019 www.gphi.it | Contacts | DMCA | Privacy Policy