» » One Punch Man - 01 720p x264 -ARIZONE English Dubbed
Language: English
Size: 98.8 MB
Rating: 4.3
Category: Anime
Votes: 586
One Punch Man - 01 720p x264 -ARIZONE English Dubbed
Files:
  • One Punch Man - 01 [English Dubbed] 720p x264 ~ARIZONE.mp4 (98.8 MB)


Please bookmark this domain and UNBLOCK on us ADBLOCK!!! We recieve too many complaints regarding to broken videos. One Punch Man Episode 14 English Dubbed online for free in HD.

Please bookmark this domain and UNBLOCK on us ADBLOCK!!! We recieve too many complaints regarding to broken videos. If you are using an ADblock you probably won't be able to watch in HD and sometimes you will get errors like "No video with supported format and MIME type found". This is a bug of Adblock not our fault!! Please turn off your Adblocks to watch it without any trouble. One Punch Man Season 2 Episode 2 English Dubbed. Watch full One Punch Man Season 2 Episode 2 English Dubbed full HD online.

One Punch Man Episode 15 English Dubbed online for free in H.

One Punch Man Season 2 Episode 8 English Dubbed. One Punch Man Season 2 Episode 7 English Dubbed. One Punch Man Season 2 Episode 6 English Dubbed. One Punch Man Season 2 Episode 5 English Dubbed. One Punch Man Season 2 Episode 4 English Dubbed. One Punch Man Season 2 Episode 3 English Dubbed. One Punch Man Season 2 Episode 1 English Dubbed.

You will be redirected in 3 seconds.

These are the adventures of an ordinary yet extraordinary hero. 720P web-dl X264 – english dubbed version.

One-Punch Man S01 COMPLETE JAPANESE 720p BluRay x264-GalaxyTV . Posted in Anime - English-translated. One Punch Man S02E11 (1080p WEBRip x265 HEVC 10bit AAC . theincognito).

One-Punch Man S01 COMPLETE JAPANESE 720p BluRay x264-GalaxyTV ⭐. Posted in TV. G.

info p-x264- ARIZONE-mp4 Other. to One Punch M n - 01 720p x264 ~ARIZONE Anime. am One Punch Man - 01 720p x264 ~ARIZONE. ch p-x264-ARIZONE-mp4 Other. eu One Punch Man - 01 720p x264 ~ARIZONE.

One Punch Man OVA + Specials One Punch Man Season 1 Complete . 7 GB.

One Punch Man OVA + Specials. One Punch Man Season 1 Complete . 1.

One punch man dubbed episodes. Episode 12. The Strongest Hero Dubbed. The Strongest Man Subbed. Episode 11. The Dominator of the Universe Dubbed. Episode 10. Unparalleled Peril Dubbed. Episode 9. Unyielding Justice Dubbed.





Season 1 episode 1
The Strongest Man


Quote:

[center]
Format : MPEG-4
Format profile : Base Media
Codec ID : isom (isom/avc1)
File size : 98.8 MiB
Duration : 24mn 21s
Overall bit rate mode : Variable
Overall bit rate : 567 Kbps
Movie name : S01 E01 - The Strongest Man ~ARIZONE

[spoiler="VIDEO / AUDIO"]

Quote:


[color="green"]VIDEOS[/color]
Format : AVC
Format : AVC
Format/Info : Advanced Video Codec
Format profile : [email protected]
Format settings, CABAC : Yes
Format settings, ReFrames : 6 frames
Codec ID : avc1
Codec ID/Info : Advanced Video Coding
Duration : 24mn 21s
Bit rate : 500 Kbps
Maximum bit rate : 3 734 Kbps
Width : 1 280 pixels
Height : 720 pixels
Display aspect ratio : 16:9
Frame rate mode : Constant
Frame rate : 23.976 (24000/1001) fps
Color space : YUV
Chroma subsampling : 4:2:0
Bit depth : 8 bits
Scan type : Progressive
Bits/(Pixel*Frame) : 0.023
Stream size : 87.2 MiB (88%)
Writing library : x264 core 146 r2538 121396c
Encoding settings : cabac=1 / ref=6 / deblock=1:1:1 / analyse=0x3:0x113 / me=hex / subme=7 / psy=1 / psy_rd=0.40:0.00 / mixed_ref=1 / me_range=16 / chroma_me=1 / trellis=1 / 8x8dct=1 / cqm=0 / deadzone=21,11 / fast_pskip=1 / chroma_qp_offset=-2 / threads=18 / lookahead_threads=3 / sliced_threads=0 / nr=0 / decimate=1 / interlaced=0 / bluray_compat=0 / constrained_intra=0 / bframes=5 / b_pyramid=2 / b_adapt=1 / b_bias=0 / direct=1 / weightb=1 / open_gop=0 / weightp=2 / keyint=240 / keyint_min=23 / scenecut=40 / intra_refresh=0 / rc_lookahead=40 / rc=2pass / mbtree=1 / bitrate=500 / ratetol=1.0 / qcomp=0.60 / qpmin=0 / qpmax=69 / qpstep=4 / cplxblur=20.0 / qblur=0.5 / vbv_maxrate=62500 / vbv_bufsize=78125 / nal_hrd=none / filler=0 / ip_ratio=1.40 / aq=1:0.60
[color="green"]AUDIO[/color]
Format : AAC
Format/Info : Advanced Audio Codec
Format profile : HE-AAC / LC
Codec ID : 40
Duration : 24mn 21s
Bit rate mode : Variable
Bit rate : 64.0 Kbps
Maximum bit rate : 74.9 Kbps
Channel(s) : 2 channels
Channel positions : Front: L R
Sampling rate : 48.0 KHz / 24.0 KHz
Frame rate : 23.438 fps (1024 spf)
Compression mode : Lossy
Stream size : 11.1 MiB (11%)

[/spoiler][/spoiler]

Images:
http://s22.postimg.org/j03lusd4h/ARIZONE.jpg|http://s3.postimg.org/m13o4bjab/INFO_2.jpg|http://s9.postimg.org/u5do23lpr/ARIZONE_2015_11_09_18h26m19s838.jpg|https://s30.postimg.org/sevpdu22p/01047296100867101552.jpg

Related at One Punch Man - 01 720p x264 -ARIZONE:
© 2019 www.gphi.it | Contacts | DMCA | Privacy Policy