» » Naruto Shippuden Episode 280 - With English Subtitle Jazz_Singh
Language: Japanese
Size: 37.6 MB
Rating: 4.6
Category: Anime
Votes: 954
Naruto Shippuden Episode 280 - With English Subtitle Jazz_Singh
Files:
  • Naruto Shippuden Episode 280 - With English Subtitle [Jazz_Singh].mp4 (37.6 MB)
  • Torrent downloaded from ExtraTorrent.com.txt (0.3 KB)
  • Torrent downloaded from jazz_singh torrents on BTScene.eu.txt (0.1 KB)
  • Torrent downloaded from torlock.com.txt (0.1 KB)
  • Torrent downloaded from ahashare.com.txt (0.0 KB)
  • Torrent downloaded from thepiratebay.se.txt (0.0 KB)
  • Torrent downloaded from .org.txt (0.0 KB)
  • Torrent downloaded from fenopy.com.txt (0.0 KB)
  • Torrent downloaded from h33t.com.txt (0.0 KB)
  • Torrent downloaded from kat.ph.txt (0.0 KB)


You are going to Watch Naruto Shippuden Episode 280 English subbed online free episodes with HQ, high quality. Stream Anime Naruto Shippuden Episode 280 Online English sub Aesthetics of an Artist

You are going to Watch Naruto Shippuden Episode 280 English subbed online free episodes with HQ, high quality. Stream Anime Naruto Shippuden Episode 280 Online English sub Aesthetics of an Artist. Kurotsuchi pays a visit to the Fifth division where Deidara was held prisoner. Earlier, A White Zetsu in a samurai's clothing approaches Deidara and tries to break Deidara's containment. However Kurotsuchi and Okisuke arrive and White Zetsu suddenly stops, leaving the katana on Deidara's containment.

Home Naruto - Naruto English Dubbed - Naruto English Subbed - Naruto Ovas Naruto Shippuden - Naruto Shippuden English Dubbed - Naruto Shippuden . Episode280 Aesthetics of an Artist.

Home Naruto - Naruto English Dubbed - Naruto English Subbed - Naruto Ovas Naruto Shippuden - Naruto Shippuden English Dubbed - Naruto Shippuden English Subbed - Naruto Shippuden Ovas Boruto Series - Boruto Series English Dubbed - Boruto Series English Subbed Naruto Spin-off - Spin-off English Dubbed - Spin-off English Subbed Movies - Naruto English Dubbed Movies - Naruto English Subbed Movies - Naruto Shippuden English Dubbed Movies - Naruto Shippuden English Subbed Movies. Naruto Shippuden Episode 280 English Subbed.

Where to watch or download English Dubbed and Subbed Naruto and Naruto Shippuden Anime Episodes from all seasons for free. Naruto Anime is based on Japanese Manga series of the same name, but not all the episodes

Where to watch or download English Dubbed and Subbed Naruto and Naruto Shippuden Anime Episodes from all seasons for free. Naruto Anime is based on Japanese Manga series of the same name, but not all the episodes. The first 134 episodes are based on 27 volumes of its Manga series from Part I, and rest 86 were made exclusively for its Anime Series. So there are 220 episodes in original Naruto series, released in many seasons between 2002 to 2007. Its English dubbed version was aired between 2005 to 2009. Naruto Shippuden Anime series is based on Part II Naruto Manga Series.

Torrent downloaded from jazz singh torrents on BTScene. txt69 B. Torrent downloaded from torlock.

info h-Subtitle- Anime. to Naruto Shippuden Episode 280 - With English Subtitle Anime. com Naruto Shippuden Episode 280: With English Subtitle [Jazz Singh Other. Torrent downloaded from jazz singh torrents on BTScene.

Report An Error With This Video.

Select a mirror and stream Naruto Shippuden Episode 280 Subbed & Dubbed in HD. High Quality Anime Online at Animegg. Report An Error With This Video.

You are currently watching Naruto Shippuden Episode 280 English Dubbed from the anime series Naruto Shippuden. You can watch more episodes of Naruto Shippuden English Dub or Sub here at Dubbed Anime for free! Previous. Dubbed Anime is an anime streaming video site where you can watch anime in English Dubbed & Subbed.

Anime info: Naruto Shippuden. Please, reload page if you can't watch the video. Mp4UploadChoose this server. Video broken Subtitle out of sync Wrong Video. Report this Episode! Download. VidstreamingChoose this server.

Episode 280 (Current).

Naruto Shippuden Episode 280


Title:The Artist's Aesthetics
Release date :September 20th, 2012
Audio language :Japanese
SubTitle language :English

General
Format : MPEG-4
Format profile : Base Media
Codec ID : isom
File size : 37.6 MiB
Duration : 23mn 9s
Overall bit rate mode : Variable
Overall bit rate : 227 Kbps
Encoded date : UTC 2012-09-19 11:04:23
Tagged date : UTC 2012-09-19 11:04:23

Video
Format : AVC
Format/Info : Advanced Video Codec
Format profile : [email protected]
Format settings, CABAC : Yes
Format settings, ReFrames : 4 frames
Codec ID : avc1
Codec ID/Info : Advanced Video Coding
Duration : 23mn 9s
Bit rate : 180 Kbps
Maximum bit rate : 1 633 Kbps
Width : 512 pixels
Height : 288 pixels
Display aspect ratio : 16:9
Frame rate mode : Constant
Frame rate : 23.976 fps
Color space : YUV
Chroma subsampling : 4:2:0
Bit depth : 8 bits
Scan type : Progressive
Bits/(Pixel*Frame) : 0.051
Stream size : 29.8 MiB (79%)
Title : Imported with GPAC 0.4.6-DEV (build 1)
Writing library : x264 core 79 r1342kMod e8501ef

Audio
Format : AAC
Format/Info : Advanced Audio Codec
Format profile : LC
Codec ID : 40
Duration : 23mn 9s
Bit rate mode : Variable
Bit rate : 44.0 Kbps
Maximum bit rate : 55.4 Kbps
Channel(s) : 2 channels
Channel positions : Front: L R
Sampling rate : 44.1 KHz
Compression mode : Lossy
Stream size : 7.29 MiB (19%)
Encoded date : UTC 2012-09-19 11:04:24
Tagged date : UTC 2012-09-19 11:04:24

Images:
http://i.imgur.com/DHGBA.gif|http://i.imgur.com/jE103.png|http://i.imgur.com/Aaix0.jpg|http://i.imgur.com/Q4wgn.gif|http://i.imgur.com/QMSEu.gif|http://i.imgur.com/ctI4t.gif|http://i.imgur.com/beorv.png

Related at Naruto Shippuden Episode 280 - With English Subtitle :
Comments 1
GAZANIK
http://all4youz.blogspot.com/2012/09/naruto-shippuden-episode-280-screen.html
© 2019 www.gphi.it | Contacts | DMCA | Privacy Policy