» » The Silver Guardian S01E08 720p x264 EngDub
Language: English
Size: 142.0 MB
Rating: 4.5
Category: Anime
Votes: 739
The Silver Guardian S01E08 720p x264 EngDub
Files:
  • [DigiMaza] Gin no Guardian S01E08.mkv (142.0 MB)


All categories Anime - Anime Music Video - English-translated - ed - Raw Audio - Lossless - Lossy . The Silver Guardian - 12 .mkv (22. MiB).

All categories Anime - Anime Music Video - English-translated - ed - Raw Audio - Lossless - Lossy Literature - English-translated - ed - Raw Live Action - English-translated - Idol/Promotional Video - ed - Raw Pictures - Graphics - Photos Software - Applications - Games.

Watch Streaming Anime The Silver Guardian Episode 8 English Dubbed online for Free in HD/High Quality. Our players are mobile (HTML5) friendly, responsive with ChromeCast support. You can use your mobile device without any trouble.

The Last of the Mohicans Ending/Promentory 720P - Продолжительность: 9:25 Keith Grenier Recommended for you. 9:25. ВЕДЬМАК 1-2-3 - ВСЕ СИНЕМАТИКИ НА РУССКОМ (все трейлеры и заставки) - Продолжительность: 25:29 CINEMATIC GAMING Recommended for you.

Watch Gin no Guardian english dubbed Episode 1 at AnimeKisa. Alias : The Silver Guardian. Description : Based on the Chinese web comic Yín Zhī Shǒu Mù Rén.

The Silver Guardian - S01E09 -. com/dbftrwuha953/ The Silver Guardian - S01E10 - [.

Video ID : 1 Format : AVC Format/Info : Advanced Video Codec Format profile : [email protected]

Join us in the Discord or IRC channel to know about new releases and to just chat .The Silver Guardian - 01 .mkv.

Join us in the Discord or IRC channel to know about new releases and to just chat .S: 2. L: 0. C: 1. U: 1d, 13min ago. udp://tracker. moe:6969/announce The Silver Guardian - 01 .

Levius Episode 12 English Dubbed. Isekai Cheat Magician Episode 10 English Dubbed. Didn't I Say to Make My Abilities Average in the Next Life?!

Levius Episode 12 English Dubbed. Levius Episode 1 English Dubbed. Kemono Michi: Rise Up Episode 8 English Dubbed. To the Abandoned Sacred Beasts Episode 10 English Dubbed. Radiant Season 2 Episode 8 English Dubbed. Cautious Hero: The Hero Is Overpowered but Overly Cautious Episode 7 English Dubbed. Ahiru no Sora Episode 4 English Dubbed. Didn't I Say to Make My Abilities Average in the Next Life?! Episode 4 English Dubbed. My Teen Romantic Comedy SNAFU Episode 12 English Dubbed.

The Silver Guardian S01E08 (EngDub) 720p x264 Download
..::File Specs::..
General
Format                                   : Matroska
Format version                           : Version 4 / Version 2
File size                                : 142 MiB
Duration                                 : 13 min 4 s
Overall bit rate                         : 1 518 kb/s
Video
ID                                       : 1
Format                                   : AVC
Format/Info                              : Advanced Video Codec
Format profile                           : [email protected]
Format settings, CABAC                   : Yes
Format settings, ReFrames                : 1 frame
Codec ID                                 : V_MPEG4/ISO/AVC
Duration                                 : 13 min 4 s
Bit rate                                 : 1 324 kb/s
Width                                    : 1 280 pixels
Height                                   : 720 pixels
Display aspect ratio                     : 16:9
Frame rate mode                          : Constant
Frame rate                               : 23.976 (24000/1001) FPS
Color space                              : YUV
Chroma subsampling                       : 4:2:0
Bit depth                                : 8 bits
Scan type                                : Progressive
Bits/(Pixel*Frame)                       : 0.060
Stream size                              : 124 MiB (87%)
Default                                  : Yes
Forced                                   : No
Color range                              : Limited
Color primaries                          : BT.709
Transfer characteristics                 : BT.709
Matrix coefficients                      : BT.709
Audio
ID                                       : 2
Format                                   : AAC
Format/Info                              : Advanced Audio Codec
Format profile                           : LC
Codec ID                                 : A_AAC
Duration                                 : 13 min 4 s
Bit rate                                 : 192 kb/s
Channel(s)                               : 2 channels
Channel positions                        : Front: L R
Sampling rate                            : 44.1 kHz
Frame rate                               : 43.066 FPS (1024 spf)
Compression mode                         : Lossy
Stream size                              : 18.0 MiB (13%)
..::ScreenShots::..
https://s9.postimg.org/jveaq9slr/vlcsnap-2017-06-22-01h49m49s291.png
https://s9.postimg.org/ttz9cr21b/vlcsnap-2017-06-22-01h49m59s447.png
================================================================
Seed Seed Seed Seed Seed Seed Seed Seed Seed Seed Seed Seed Seed
To direct download or Watch Online this file, Visit.
http://bit.ly/2qz6ATZ
Seed Seed Seed Seed Seed Seed Seed Seed Seed Seed Seed Seed Seed
================================================================

Images:

Related at The Silver Guardian S01E08 720p x264:
© 2019 www.gphi.it | Contacts | DMCA | Privacy Policy