» » Ben 10 - Roiul Extraterestru Extremlyms 2009
Language: Romanian
Size: 1.0 GB
Rating: 4.2
Category: Anime
Votes: 368
Ben 10 - Roiul Extraterestru Extremlyms 2009
Files:
Ben 10 - Roiul Extraterestru (2009) ExtremlymTorrents.ws Cover
  • ben-10-alien-swarm-french-movie-cover.jpg (111.7 KB)
  • ded43641-87b4-4f96-87d4-8440cebb6418.png (507.9 KB)
  • b2c822a9-adaa-432e-a277-a0997887fdde.png (630.3 KB)
  • Ben 10 - Roiul Extraterestru (2009) ExtremlymTorrents.ws.avi (1.0 GB)


General Complete name :Ben 10 - Roiul Extraterestru (2009) ExtremlymTorrents.

General Complete name :Ben 10 - Roiul Extraterestru (2009) ExtremlymTorrents. 3, Feb 16 201019:42:50.

Extreme Rules (2009) was a professional wrestling pay-per-view (PPV) event produced by World Wrestling Entertainment (WWE), which took place on June 7, 2009, at the New Orleans Arena in New Orleans, Louisiana

Extreme Rules (2009) was a professional wrestling pay-per-view (PPV) event produced by World Wrestling Entertainment (WWE), which took place on June 7, 2009, at the New Orleans Arena in New Orleans, Louisiana. It was the first event promoted under the Extreme Rules name, and initially noted by WWE to be a direct continuation of the One Night Stand chronology. It featured talent from the Raw, SmackDown, and ECW brands. There were eight matches scheduled on the event's card, though nine actually took place.

In the midst of a war between Kronos and Terradino, a mini black hole suddenly opens, unleashing beings made of Darcness. As Plumbers bring in reinforcements, the beings take over the warriors of Kronos and Terradino

Ben 10 - Roiul Extraterestru (2009) ExtremlymTorrents.

Ben 10 - Roiul Extraterestru (2009) ExtremlymTorrents. jpg112 KB. 7d4-8440cebb6418. png508 KB. 277-a0997887fdde. png630 KB. Ben 10 - Roiul Extraterestru (2009) ExtremlymTorrents. You cannot download any of those files from here.

XviD-VoMiT 70. MB. Be. 0.

Ben 10 Extreme Stunts is a Racing game on GaHe. Perform insane stunts as Ben 10 jumps on his super bike. Try not to hit the obstacles or flip over!

Ben 10 Extreme Stunts is a Racing game on GaHe. You can play Ben 10 Extreme Stunts in your browser for free. Try not to hit the obstacles or flip over!

Ben 10 returns to its new roots as Cartoon Network reboots it for 2017 for North America and sooner for the west coast.

Ben 10 returns to its new roots as Cartoon Network reboots it for 2017 for North America and sooner for the west coast. Bear witness of the new look of Ben as a 10 year old! Cartoon Network is giving a fresh take on Ben launching a new animated series about the alien-powered kid hero. Maybe it's better design than Omniverse. Ver más. Dibujos Para Colorear Miguelitos Extraterrestres Focas Personajes Ilustracion Bandas De Rock Galaxias Dibujos Animados Marcos. BEN TEN. Ultimate Swampfire.


Ben 10 - Roiul Extraterestru ExtremlymTorrents
https://www.imdb.com/title/tt1327701/
Ben 10: Alien Swarm este un film de televiziune de science fiction și acțiune, regizat de Alex Winter și lansat în 2009. Se bazează pe serialul Ben 10: Echipa extraterestră și este o continuare a filmului Ben 10 - Cursa împotriva timpului din 2007. Wikipedia
Data lansării: 25 noiembrie 2009
Regizor: Alex Winter
Muzică compusă de: Michael Wandmacher
Serie de filme: Ben 10: Race Against Time
Companie de producție: Warner Bros.
General
Complete name :Ben 10 - Roiul Extraterestru ExtremlymTorrents.ws.avi
Format : AVI
Format/Info : Audio Video Interleave
Format profile : OpenDML
Format settings : rec
File size : 1.03 GiB
Duration : 1 h 9 min
Overall bit rate : 2 121 kb/s
Writing application : AVI-Mux GUI 1.17.8.3, Feb 16 201019:42:50
Video
ID : 0
Format : MPEG-4 Visual
Format profile : Advanced [email protected]
Format settings : BVOP1
Format settings, BVOP : 1
Format settings, QPel : No
Format settings, GMC : No warppoints
Format settings, Matrix : Default (H.263)
Codec ID : XVID
Codec ID/Hint : XviD
Duration : 1 h 9 min
Bit rate : 1 923 kb/s
Width : 720 pixels
Height : 400 pixels
Display aspect ratio : 16:9
Frame rate : 23.976 (24000/1001) FPS
Color space : YUV
Chroma subsampling : 4:2:0
Bit depth : 8 bits
Scan type : Progressive
Compression mode : Lossy
Bits/(Pixel*Frame) : 0.278
Stream size : 952 MiB (91%)
Writing library : XviD 1.2.1 (UTC 2008-12-04)
Audio
ID : 1
Format : AC-3
Format/Info : Audio Coding 3
Commercial name : Dolby Digital
Codec ID : 2000
Duration : 1 h 9 min
Bit rate mode : Constant
Bit rate : 192 kb/s
Channel(s) : 2 channels
Channel layout : L R
Sampling rate : 48.0 kHz
Frame rate : 31.250 FPS (1536 SPF)
Bit depth : 16 bits
Compression mode : Lossy
Stream size : 95.1 MiB (9%)
Alignment : Aligned on interleaves
Interleave, duration : 64 ms (1.53 video frames)
Interleave, preload duration : 192 ms
Title : Ben 10 - Roiul extraterestru
Service kind : Complete Main

Images:
https://extremlymtorrents.ws/uploads/images/33534170.jpg|https://extremlymtorrents.ws/images/rsz_downloaded_from_extremlymtorrents.png

Related at Ben 10 - Roiul Extraterestru Extremlyms:
© 2019 www.gphi.it | Contacts | DMCA | Privacy Policy