» » Summer Wars 720p x264 EngDub 2009
Language: English
Size: 673.7 MB
Rating: 4.9
Category: Anime
Votes: 184
Summer Wars 720p x264 EngDub 2009
Files:
(DigiMaza) Summer Wars (2009)
  • [DigiMaza] Summer Wars (2009).mkv (673.7 MB)
  • Read Me.txt (0.5 KB)


Made with StaxRip Please, continue seeding.

Made with StaxRip Please, continue seeding. Summer Wars (BD 1280x720 x264 AAC).

Kenji is your typical teenage misfit. Video ID : 1 Format : AVC Format/Info : Advanced Video Codec Format profile : [email protected] Format settings, CABAC : Yes Format settings, ReFrames : 10 frames Codec ID : V MPEG4/ISO/AVC Duration : 1 h 53 min Bit rate : 733 kb/s Width : 1 280 pixels Height : 720 pixels Display aspect ratio : 16:9 Frame rate mode : Constant Frame rate : 2. 76 (24000/1001).

17 Again 2009 Movie 480p 720p 1080p BrRip x264 English 17 Again (2009) Full Movie Dual Audio Comedy Movie 480p 300mb Download . Initial release: 11 March 2009 (Sydney). Director: Burr Steers. Featured song: This Is for Real. Box office: 13. million USD. Budget: 20 million USD.

17 Again 2009 Movie 480p 720p 1080p BrRip x264 English 17 Again (2009) Full Movie Dual Audio Comedy Movie 480p 300mb Download & Watch Online. Screen-Shots. 17 Again 2009 720p 1080p BrRip x264 English 650MB . GB. Download English Subs.

Watch Summer Wars online English dubbed free with HQ, high quailty. Stream Summer Wars English version

Watch Summer Wars online English dubbed free with HQ, high quailty. Stream Summer Wars English version. When timid eleventh-grader and math genius Kenji Koiso is asked by older student and secret crush Natsuki to come with her to her family's Nagano home for a summer job, he agrees without hesitation. Natsuki's family, the Jinnouchi clan, dates back to the Muromachi era (1336 to 1573), and they've all come together to celebrate the 90th birthday of the spunky matriarch of the family, Sakae.

Arabic Summer Wars I used the subtitles for "Summer. x264-CHD" uploaded by -jonny- and fixed the timing to work with the VOSTFR release. English Summer Wars 2009.

I used the subtitles for "Summer. English Summer Wars BD 1280x720 x264 AAC. 1. cantonah. namlshb0002.

Japanese&Mandarin.

mkv video movie hd. 4 years2241 MB50. Summer Wars (2009) video. 1-OFA video movie hd. 4 months15 GB31. Japanese&Mandarin. AAC-RARBG video movie hd. 2 years1416 MB11.

Inside, you'll find a. rt file - Summer. x264-CHD (11. 7 kB), which is actually what adds the translation to your video.

x264-CHD torrent or any other torrent from the Video HD - Movies. Type: Video HD - Movies.

Summer Wars [EngDub] 720p x264 Download

Quote:

Kenji is your typical teenage misfit. He’s good at math, bad with girls, and spends most of his time out hanging out in the all-powerful online community known as OZ. His second life is the only life he has – until the girl of his dreams, Natsuki, hijacks him for a starring role as a fake fiancé at her family reunion. Things only get stranger from there. A late-night email containing a cryptic mathematic riddle leads to the unleashing of a rogue AI intent on using the virtual world of OZ to destroy the real world. As Armageddon looms on the horizon, Kenji and his new “family” set aside their differences and band together to save the worlds they inhabit in this "near-perfect blend of social satire and science fiction."

..::File Specs::..
General
Format version              : Version 4 / Version 2
File size                   : 674 MiB
Duration                    : 1 h 53 min
Overall bit rate mode       : Variable
Video
ID                          : 1
Format                      : AVC
Format/Info                 : Advanced Video Codec
Format profile              : [email protected]
Format settings, CABAC      : Yes
Format settings, ReFrames   : 10 frames
Codec ID                    : V_MPEG4/ISO/AVC
Duration                    : 1 h 53 min
Bit rate                    : 733 kb/s
Width                       : 1 280 pixels
Height                      : 720 pixels
Display aspect ratio        : 16:9
Frame rate mode             : Constant
Frame rate                  : 23.976 (24000/1001) FPS
Color space                 : YUV
Chroma subsampling          : 4:2:0
Bit depth                   : 8 bits
Scan type                   : Progressive
Bits/(Pixel*Frame)          : 0.033
Stream size                 : 594 MiB (88%)
Language                    : English
Default                     : Yes
Forced                      : No
Audio
Format                      : Vorbis
Format settings, Floor      : 1
Codec ID                    : A_VORBIS
Duration                    : 1 h 53 min
Bit rate mode               : Variable
Bit rate                    : 96.0 kb/s
Channel(s)                  : 2 channels
Sampling rate               : 44.1 kHz
Frame rate                  : 52.579 FPS (839 spf)
Compression mode            : Lossy
Stream size                 : 77.9 MiB (12%)
Language                    : English
Default                     : No
Forced                      : No
Text
ID                          : 3
Format                      : ASS
Codec ID                    : S_TEXT/ASS
Codec ID/Info               : Advanced Sub Station Alpha
Duration                    : 1 h 47 min
Bit rate                    : 122 b/s
Count of elements           : 1690
Compression mode            : Lossless
Stream size                 : 96.5 KiB (0%)
Language                    : English
..::ScreenShots::..
https://s3.postimg.org/puqfg75cj/vlcsnap-2017-05-31-08h16m22s722.png
https://s3.postimg.org/98dgkv1sj/vlcsnap-2017-05-31-08h16m28s040.png
https://s3.postimg.org/xq5k8r4cz/vlcsnap-2017-05-31-08h16m46s462.png
================================================================
Seed Seed Seed Seed Seed Seed Seed Seed Seed Seed Seed Seed Seed
To direct download this file, Visit.
www.DigiMaza.com
Seed Seed Seed Seed Seed Seed Seed Seed Seed Seed Seed Seed Seed
================================================================

Images:
https://s22.postimg.org/a50yf1qgx/Summer-_Wars-digimaza.jpg

Related at Summer Wars 720p x264:
© 2019 www.gphi.it | Contacts | DMCA | Privacy Policy