» » Code Geass: Lelouch of the Rebellion Season 1 Xvid gg
Language: Japanese
Size: 5.9 GB
Rating: 4.7
Category: Anime
Votes: 699
Code Geass: Lelouch of the Rebellion Season 1 Xvid gg
Files:
  • Code Geass 01.avi (244.8 MB)
  • Code Geass 02.avi (243.3 MB)
  • Code Geass 03.avi (243.3 MB)
  • Code Geass 04.avi (243.2 MB)
  • Code Geass 05.avi (244.9 MB)
  • Code Geass 06.avi (244.5 MB)
  • Code Geass 07.avi (244.8 MB)
  • Code Geass 08.avi (244.8 MB)
  • Code Geass 09.avi (245.0 MB)
  • Code Geass 10.avi (244.9 MB)
  • Code Geass 11.avi (245.0 MB)
  • Code Geass 12.avi (244.7 MB)
  • Code Geass 13.avi (244.9 MB)
  • Code Geass 14.avi (244.9 MB)
  • Code Geass 15.avi (244.9 MB)
  • Code Geass 16.avi (245.0 MB)
  • Code Geass 17.avi (231.4 MB)
  • Code Geass 18.avi (231.3 MB)
  • Code Geass 19.avi (231.4 MB)
  • Code Geass 20.avi (231.3 MB)
  • Code Geass 21.avi (231.3 MB)
  • Code Geass 22.avi (231.5 MB)
  • Code Geass 23.avi (229.0 MB)
  • Code Geass 24-25.avi (468.0 MB)


Streaming Guide TV Shows Anime Code Geass: Lelouch of the Rebellion. Lelouch, the black prince, has endless ambition and uses the power of the Geass to build a world based on his ideals.

Streaming Guide TV Shows Anime Code Geass: Lelouch of the Rebellion. Watch Code Geass: Lelouch of the Rebellion Season 1. 2006. Suzaku Kururugi, the white knight, aspires to justice and strives to live an honest and fair life. This is an English dub version of the Japanese cartoon. Starring: Kevin Hatcher. Season 1. Season 2. 25 Episodes.

Years later, Lelouch is in high school, but regularly skips out of school to go play chess and gamble on himself. One day, he stumbles on terrorists 11’s who’ve stolen a military secret and is caught by a member of the Britannian task force sent after them, who is Suzaku

Years later, Lelouch is in high school, but regularly skips out of school to go play chess and gamble on himself. One day, he stumbles on terrorists 11’s who’ve stolen a military secret and is caught by a member of the Britannian task force sent after them, who is Suzaku.

Lelouch Lamperouge, an exiled prince, encounters a strange girl known as . who gifts him with a great power. With this ability, Lelouch can get anyone to do as he wills. Lelouch Lamperouge, an exiled prince, encounters a strange girl known as .

List of Code Geass: Lelouch of the Rebellion episodes. Code Geass: Lelouch of the Rebellion (Japanese: コードギアス 反逆のルルーシュ Hepburn: Kōdo Giasu: Hangyaku no Rurūshu) is an anime series produced by Sunrise,. Code Geass: Lelouch of the Rebellion (Japanese: コードギアス 反逆のルルーシュ Hepburn: Kōdo Giasu: Hangyaku no Rurūshu) is an anime series produced by Sunrise, Mainichi Broadcasting System, and Project Geass. The series was directed by Gorō Taniguchi who cooperated with Ichirō Ōkouchi on the script. The characters were conceived by Clamp and designed by Takahiro Kimura

Lelouch and Kallen form the Black Knights and offer their services to Cornelia, who plans a rescue mission for the captive third princess of Britannia.

Lelouch and Kallen form the Black Knights and offer their services to Cornelia, who plans a rescue mission for the captive third princess of Britannia. With incredible plot twists, intriguing characters, relevant political themes, and thoughtful execution of plans, Code Geass S1 delivers an excellent performance.

Lelouch uses the Geass and Nunnally and gets the key of Damocles Lelouch contacts Kallen, one of the terrorists that appeared inside Shinjuku, and guides her to safety away from.

Lelouch uses the Geass and Nunnally and gets the key of Damocles. Thanks to that and to the FLEIJA, he has a power that cannot be challenged. After Japan is conquered by Britannia, an exiled prince gains an amazing power and joins the resistance to help his friends reclaim their freedom. 1. Episode 1. 24m. An exiled prince living under an assumed identity is imprisoned by militia but escapes with the help of a girl who endows him with special powers

Lelouch Lamperouge, an exiled prince, encounters a strange girl known as . But the power of Geass: is it a blessin. r a curse? Code Geass: Lelouch of the Rebellion, Season 1. HD. CC.

http://www.youtube.com/watch?v=K5tgCgskXys
-Average per episode-
Video
Format : MPEG-4 Visual
Format profile : Streaming [email protected]
Format settings, BVOP : Yes
Format settings, QPel : No
Format settings, GMC : No warppoints
Format settings, Matrix : Default (H.263)
Muxing mode : Packed bitstream
Codec ID : XVID
Codec ID/Hint : XviD
Duration : 24mn 28s
Bit rate : 1 197 Kbps
Width : 640 pixels
Height : 448 pixels
Display aspect ratio : 1.429
Frame rate : 23.976 fps
Resolution : 24 bits
Colorimetry : 4:2:0
Scan type : Progressive
Bits/(Pixel*Frame) : 0.174
Stream size : 210 MiB (86%)
Writing library : XviD 1.2.1 (UTC 2008-12-04)
Audio
Format : MPEG Audio
Format version : Version 1
Format profile : Layer 3
Codec ID : 55
Codec ID/Hint : MP3
Duration : 24mn 28s
Bit rate mode : Constant
Bit rate : 192 Kbps
Channel(s) : 2 channels
Sampling rate : 48.0 KHz
Resolution : 16 bits
Stream size : 33.6 MiB (14%)
Alignment : Aligned on interleaves
Interleave, duration : 42 ms (1.00 video frame)
Interleave, preload duration : 504 ms
Writing library : LAME3.96r

Images:

Related at Code Geass: Lelouch of the Rebellion Season 1 Xvid:
© 2019 www.gphi.it | Contacts | DMCA | Privacy Policy