» » Pom Poko 1994 1080p BDRip x265 10bit AC3 2.0 - Goki
Language: English
Size: 11.6 GB
Rating: 4.2
Category: Dual Audio
Votes: 707
Pom Poko 1994 1080p BDRip x265 10bit AC3 2.0 - Goki
Files:
Pom Poko (1994) (1080p BDRip x265 10bit AC3 2.0 - Goki)
  • Pom Poko (1994) (1080p BDRip x265 10bit AC3 2.0 - Goki).mkv (11.6 GB)
  • Pom Poko (1994) (1080p BDRip x265 10bit AC3 2.0 - Goki).nfo (8.1 KB)
  • Pom Poko (1994) (1080p BDRip x265 10bit AC3 2.0 - Goki)-clearlogo.png (114.0 KB)
  • Pom Poko (1994) (1080p BDRip x265 10bit AC3 2.0 - Goki)-fanart.jpg (344.9 KB)
  • Pom Poko (1994) (1080p BDRip x265 10bit AC3 2.0 - Goki)-logo.png (114.0 KB)
  • Pom Poko (1994) (1080p BDRip x265 10bit AC3 2.0 - Goki)-poster.jpg (654.9 KB)


64-bit Writing library : libebml v.

64-bit Writing library : libebml v. 2 Video ID : 1 Format : HEVC Format/Info : High Efficiency Video Coding Format profile : Main [email protected] Codec ID : V MPEGH/ISO/HEVC Duration : 1 h 59 min Bit rate : 3 640 kb/s Width : 1 920 pixels Height : 1 080 pixels Display aspect ratio : 16:9 Frame.

ATTENTION : Le film est encodée au format X265/H265.

ATTENTION : Le film est encodée au format X265/H265 Studio(s) : Warner Bros Type : Film Genre : Action Date de sortie : 1999 Durée : 83 minutes. Dans le nord-est des États-Unis, à la fin des années 1950, un grand robot d'une hauteur de 30m, d'origine extraterrestre, se lie d’amitié avec un garçon de huit ans et un jeune artiste beatnik.

Audio ID : 2 Format : AC-3 Format/Info : Audio Coding 3 Mode extension : CM (complete main) Format settings, Endianness : Big Codec ID : A AC3 Duration : 45mn 37s Bit rate mode : Constant Bit rate : 224 Kbps Channel(s) : 2 channels Channel positions : Front: L R Sampling rate : 4. KHz Frame rate : 3. 50 fps (1536 spf) Compression mode : Lossy Delay.

AC-3Format/Info : Audio Coding 3Mode extension : CM (complete main)Format settings, Endianness : BigCodec ID : A AC3Duration : 24 min 11 sBit rate mode : ConstantBit rate : 192 kb/sChannel(s) : 2 channelsChannel positions : Front: L RSampling rate : 4. kHzFrame rate : 3. 50 FP. .

MiB (9%)Title : . Ch FLACWriting library : Lavc58.

Pom Poko (Heisei Tanuki Gassen Ponpoko) p Bluray x265 10Bit AAC 2 0.Pom Poko - Heisei tanuki gassen Ponpoko (1994) DVDrip XviD - Italian Jpn Ac3 Sub ita iCV-MIRCrew Posted by robbyrs in Movies Divx/Xvid.

Pom Poko (Heisei Tanuki Gassen Ponpoko) p Bluray x265 10Bit AAC 2 0 - GetSchwifty Posted by GetSchwifty in Movies HEVC/x265. 2. 1. Pom Poko 1994 DUAL-AUDIO 720p BrRip x265 HEVCBay Posted by g3m696 in Movies HEVC/x265. 0. Download torrent. Pom Poko 1994 720p BluRay x264 AC3 - Ozlem.

framing john delorean p. 7 minutes ago. the peanut butter falcon p. lying and stealing p. 8 minutes ago. the art of racing in rain p. 9 minutes ago. way home a.

Pom Poko (1994) (1080p BDRip x265 10bit FLAC 2 0 - Goki) Posted by Goki in Anime Dual Audio. 4. 7. Pom Poko - Heisei tanuki gassen Ponpoko BDrip 1080p - H264 - Ita Jap Ac3 DTS - SoftSub Ita Isao Takahata - 1994 Tntvillage Scambioetico Posted by guybrushtx in Movies HD. GB. guybrushtx. Pom Poko (1994) 720p BRRiP x264 AAC Team Nanban Posted by 594mgnav in Movies HD. 85. MB. 594mgnav.

info Pom-Poko-(1994)-(it-AC3-2-0-Goki) Anime. 4 hours 1 3. udp://retracker. to Pom Poko (1994) (1080p BDRip x265 10bit AC3 . - Goki) Anime. co Pom Poko (1994) (1080p BDRip x265 10bit AC3 2 0 - Goki) Anime. 1 hour 0 2. udp://torrentclub. 9 mins 0 1. Tracker list.



Pom Poko IMDB

Screenshots





Media Information

Unique ID : 277094628334527202212039260860989414583 (0xD0767BF5700BBFF85F2F3FB9F0E99CB7)
Complete name : Pom Poko (1080p BDRip x265 10bit AC3 2.0 - Goki).mkv
Format : Matroska
Format version : Version 4
File size : 11.6 GiB
Duration : 1 h 59 min
Overall bit rate : 13.9 Mb/s
Movie name : Pom Poko (1080p BDRip x265 10bit AC3 2.0 - Goki)
Encoded date : UTC 2019-10-01 04:04:23
Writing application : mkvmerge v28.2.0 ('The Awakening') 64-bit
Writing library : libebml v1.3.6 + libmatroska v1.4.9
Video
ID : 1
Format : HEVC
Format/Info : High Efficiency Video Coding
Format profile : Main [email protected]@Main
Codec ID : V_MPEGH/ISO/HEVC
Duration : 1 h 59 min
Bit rate : 12.1 Mb/s
Width : 1 920 pixels
Height : 1 080 pixels
Display aspect ratio : 16:9
Frame rate mode : Constant
Frame rate : 23.976 (24000/1001) FPS
Color space : YUV
Chroma subsampling : 4:2:0
Bit depth : 10 bits
Bits/(Pixel*Frame) : 0.243
Stream size : 10.1 GiB (87%)
Writing library : x265 2.9+8-27d8424c799d:[Windows][GCC 8.2.0][64 bit] 10bit
Encoding settings : cpuid=1049071 / frame-threads=3 / numa-pools=8 / wpp / no-pmode / no-pme / no-psnr / no-ssim / log-level=2 / input-csp=1 / input-res=1920x1080 / interlace=0 / total-frames=0 / level-idc=0 / high-tier=1 / uhd-bd=0 / ref=4 / no-allow-non-conformance / no-repeat-headers / annexb / no-aud / no-hrd / info / hash=0 / no-temporal-layers / open-gop / min-keyint=23 / keyint=250 / gop-lookahead=0 / bframes=8 / b-adapt=2 / b-pyramid / bframe-bias=0 / rc-lookahead=100 / lookahead-slices=4 / scenecut=40 / radl=0 / no-intra-refresh / ctu=64 / min-cu-size=8 / no-rect / no-amp / max-tu-size=32 / tu-inter-depth=2 / tu-intra-depth=2 / limit-tu=4 / rdoq-level=2 / dynamic-rd=0.00 / no-ssim-rd / signhide / no-tskip / nr-intra=0 / nr-inter=0 / no-constrained-intra / no-strong-intra-smoothing / max-merge=3 / limit-refs=2 / limit-modes / me=3 / subme=5 / merange=57 / temporal-mvp / weightp / weightb / no-analyze-src-pics / deblock=0:0 / sao / no-sao-non-deblock / rd=6 / no-early-skip / rskip / no-fast-intra / no-tskip-fast / no-cu-lossless / b-intra / no-splitrd-skip / rdpenalty=0 / psy-rd=1.30 / psy-rdoq=2.00 / no-rd-refine / no-lossless / cbqpoffs=0 / crqpoffs=0 / rc=crf / crf=17.0 / qcomp=0.60 / qpstep=4 / stats-write=0 / stats-read=0 / ipratio=1.40 / pbratio=1.30 / aq-mode=2 / aq-strength=1.10 / cutree / zone-count=0 / no-strict-cbr / qg-size=32 / no-rc-grain / qpmax=69 / qpmin=0 / no-const-vbv / sar=1 / overscan=0 / videoformat=5 / range=0 / colorprim=2 / transfer=2 / colormatrix=2 / chromaloc=0 / display-window=0 / max-cll=0,0 / min-luma=0 / max-luma=1023 / log2-max-poc-lsb=8 / vui-timing-info / vui-hrd-info / slices=1 / no-opt-qp-pps / no-opt-ref-list-length-pps / no-multi-pass-opt-rps / scenecut-bias=0.05 / no-opt-cu-delta-qp / no-aq-motion / no-hdr / no-hdr-opt / no-dhdr10-opt / no-idr-recovery-sei / analysis-reuse-level=5 / scale-factor=0 / refine-intra=0 / refine-inter=0 / refine-mv=0 / no-limit-sao / ctu-info=0 / no-lowpass-dct / refine-mv-type=0 / copy-pic=1 / max-ausize-factor=1.0 / no-dynamic-refine / no-single-sei
Language : Japanese
Default : No
Forced : No
Audio #1
ID : 2
Format : AC-3
Format/Info : Audio Coding 3
Commercial name : Dolby Digital
Codec ID : A_AC3
Duration : 1 h 59 min
Bit rate mode : Constant
Bit rate : 192 kb/s
Channel(s) : 2 channels
Channel layout : L R
Sampling rate : 48.0 kHz
Frame rate : 31.250 FPS (1536 SPF)
Bit depth : 16 bits
Compression mode : Lossy
Stream size : 164 MiB (1%)
Title : Dolby Digital 2.0
Language : English
Service kind : Complete Main
Default : Yes
Forced : No
Audio #2
ID : 3
Format : AC-3
Format/Info : Audio Coding 3
Commercial name : Dolby Digital
Codec ID : A_AC3
Duration : 1 h 59 min
Bit rate mode : Constant
Bit rate : 192 kb/s
Channel(s) : 2 channels
Channel layout : L R
Sampling rate : 48.0 kHz
Frame rate : 31.250 FPS (1536 SPF)
Bit depth : 16 bits
Compression mode : Lossy
Stream size : 164 MiB (1%)
Title : Dolby Digital 2.0
Language : Japanese
Service kind : Complete Main
Default : No
Forced : No
Audio #3
ID : 4
Format : AC-3
Format/Info : Audio Coding 3
Commercial name : Dolby Digital
Codec ID : A_AC3
Duration : 1 h 59 min
Bit rate mode : Constant
Bit rate : 192 kb/s
Channel(s) : 2 channels
Channel layout : L R
Sampling rate : 48.0 kHz
Frame rate : 31.250 FPS (1536 SPF)
Bit depth : 16 bits
Compression mode : Lossy
Stream size : 164 MiB (1%)
Title : Dolby Digital 2.0
Language : French
Service kind : Complete Main
Default : No
Forced : No
Audio #4
ID : 5
Format : AC-3
Format/Info : Audio Coding 3
Commercial name : Dolby Digital
Codec ID : A_AC3
Duration : 1 h 59 min
Bit rate mode : Constant
Bit rate : 192 kb/s
Channel(s) : 2 channels
Channel layout : L R
Sampling rate : 48.0 kHz
Frame rate : 31.250 FPS (1536 SPF)
Bit depth : 16 bits
Compression mode : Lossy
Stream size : 164 MiB (1%)
Title : Dolby Digital 2.0
Language : German
Service kind : Complete Main
Default : No
Forced : No
Audio #5
ID : 6
Format : AC-3
Format/Info : Audio Coding 3
Commercial name : Dolby Digital
Codec ID : A_AC3
Duration : 1 h 59 min
Bit rate mode : Constant
Bit rate : 192 kb/s
Channel(s) : 2 channels
Channel layout : L R
Sampling rate : 48.0 kHz
Frame rate : 31.250 FPS (1536 SPF)
Bit depth : 16 bits
Compression mode : Lossy
Stream size : 164 MiB (1%)
Title : Dolby Digital 2.0
Language : Finnish
Service kind : Complete Main
Default : No
Forced : No
Audio #6
ID : 7
Format : AC-3
Format/Info : Audio Coding 3
Commercial name : Dolby Digital
Codec ID : A_AC3
Duration : 1 h 59 min
Bit rate mode : Constant
Bit rate : 192 kb/s
Channel(s) : 2 channels
Channel layout : L R
Sampling rate : 48.0 kHz
Frame rate : 31.250 FPS (1536 SPF)
Bit depth : 16 bits
Compression mode : Lossy
Stream size : 164 MiB (1%)
Title : Dolby Digital 2.0
Language : Korean
Service kind : Complete Main
Default : No
Forced : No
Audio #7
ID : 8
Format : AC-3
Format/Info : Audio Coding 3
Commercial name : Dolby Digital
Codec ID : A_AC3
Duration : 1 h 59 min
Bit rate mode : Constant
Bit rate : 192 kb/s
Channel(s) : 2 channels
Channel layout : L R
Sampling rate : 48.0 kHz
Frame rate : 31.250 FPS (1536 SPF)
Bit depth : 16 bits
Compression mode : Lossy
Stream size : 164 MiB (1%)
Title : Dolby Digital 2.0
Language : Chinese
Service kind : Complete Main
Default : No
Forced : No
Audio #8
ID : 9
Format : AC-3
Format/Info : Audio Coding 3
Commercial name : Dolby Digital
Codec ID : A_AC3
Duration : 1 h 59 min
Bit rate mode : Constant
Bit rate : 192 kb/s
Channel(s) : 2 channels
Channel layout : L R
Sampling rate : 48.0 kHz
Frame rate : 31.250 FPS (1536 SPF)
Bit depth : 16 bits
Compression mode : Lossy
Stream size : 164 MiB (1%)
Title : Dolby Digital 2.0
Language : Chinese
Service kind : Complete Main
Default : No
Forced : No
Text #1
ID : 10
Format : PGS
Codec ID : S_HDMV/PGS
Codec ID/Info : Picture based subtitle format used on BDs/HD-DVDs
Duration : 1 h 58 min
Bit rate : 40.6 kb/s
Count of elements : 2413
Stream size : 34.5 MiB (0%)
Language : English
Default : No
Forced : No
Text #2
ID : 11
Format : PGS
Codec ID : S_HDMV/PGS
Codec ID/Info : Picture based subtitle format used on BDs/HD-DVDs
Duration : 1 h 58 min
Bit rate : 50.8 kb/s
Count of elements : 4351
Stream size : 43.2 MiB (0%)
Language : Japanese
Default : No
Forced : No
Text #3
ID : 12
Format : PGS
Codec ID : S_HDMV/PGS
Codec ID/Info : Picture based subtitle format used on BDs/HD-DVDs
Duration : 1 h 58 min
Bit rate : 43.5 kb/s
Count of elements : 2796
Stream size : 37.0 MiB (0%)
Language : French
Default : No
Forced : No
Text #4
ID : 13
Format : PGS
Codec ID : S_HDMV/PGS
Codec ID/Info : Picture based subtitle format used on BDs/HD-DVDs
Duration : 1 h 58 min
Bit rate : 52.1 kb/s
Count of elements : 2254
Stream size : 44.2 MiB (0%)
Language : German
Default : No
Forced : No
Text #5
ID : 14
Format : PGS
Codec ID : S_HDMV/PGS
Codec ID/Info : Picture based subtitle format used on BDs/HD-DVDs
Duration : 1 h 57 min
Bit rate : 25.9 kb/s
Count of elements : 3004
Stream size : 21.7 MiB (0%)
Language : Korean
Default : No
Forced : No
Text #6
ID : 15
Format : PGS
Codec ID : S_HDMV/PGS
Codec ID/Info : Picture based subtitle format used on BDs/HD-DVDs
Duration : 1 h 55 min
Bit rate : 41.7 kb/s
Count of elements : 3283
Stream size : 34.5 MiB (0%)
Language : Chinese
Default : No
Forced : No
Text #7
ID : 16
Format : PGS
Codec ID : S_HDMV/PGS
Codec ID/Info : Picture based subtitle format used on BDs/HD-DVDs
Duration : 1 h 55 min
Bit rate : 41.2 kb/s
Count of elements : 3182
Stream size : 34.1 MiB (0%)
Language : Chinese
Default : No
Forced : No
Menu
00:00:00.000 : :00:00:00.000
00:00:29.029 : :00:00:29.029
00:05:19.736 : :00:05:19.736
00:10:06.272 : :00:10:06.272
00:14:48.470 : :00:14:48.471
00:18:46.416 : :00:18:43.164
00:24:11.700 : :00:24:11.700
00:28:56.609 : :00:28:56.610
00:33:02.855 : :00:33:02.856
00:38:01.237 : :00:38:01.237
00:43:40.951 : :00:43:40.952
00:49:48.402 : :00:49:48.402
00:55:35.332 : :00:55:35.332
01:00:56.444 : :01:00:56.444
01:05:40.686 : :01:05:40.687
01:09:19.280 : :01:09:15.985
01:16:21.577 : :01:16:21.577
01:21:44.107 : :01:21:44.107
01:27:18.274 : :01:27:18.275
01:33:51.459 : :01:33:44.244
01:38:34.033 : :01:38:34.033
01:44:40.524 : :01:44:40.524
01:50:59.402 : :01:50:59.403
01:54:44.419 : :01:54:44.419

Source Information

Unique ID : 175038765910603440959031826991458431306 (0x83AF3D75333AF92A8FF4EA39C5C2314A)
Complete name : Raccoon Wars 1994 1080p Bluray Remux AVC DTS-MA - BluDragon.mkv
Format : Matroska
Format version : Version 4
File size : 31.2 GiB
Duration : 1 h 59 min
Overall bit rate mode : Variable
Overall bit rate : 37.4 Mb/s
Encoded date : UTC 2014-06-18 22:28:14
Writing application : mkvmerge v6.6.0 ('The Edge Of The In Between') built on Dec 1 2013 17:55:00
Writing library : libebml v1.3.0 + libmatroska v1.4.1
Video
ID : 16
Format : AVC
Format/Info : Advanced Video Codec
Format profile : [email protected]
Format settings : CABAC / 2 Ref Frames
Format settings, CABAC : Yes
Format settings, RefFrames : 2 frames
Format settings, GOP : M=3, N=24
Codec ID : V_MPEG4/ISO/AVC
Duration : 1 h 59 min
Width : 1 920 pixels
Height : 1 080 pixels
Display aspect ratio : 16:9
Frame rate mode : Constant
Frame rate : 23.976 (24000/1001) FPS
Color space : YUV
Chroma subsampling : 4:2:0
Bit depth : 8 bits
Scan type : Progressive
Title : Raccoon Wars
Language : Japanese
Default : Yes
Forced : No
Audio #1
ID : 1
Format : PCM
Format settings : Little / Signed
Codec ID : A_PCM/INT/LIT
Duration : 1 h 59 min
Bit rate mode : Constant
Channel(s) : 2 channels
Sampling rate : 48.0 kHz
Bit depth : 16 bits
Delay relative to video : 496 ms
Title : LPCM 2.0
Language : English
Default : Yes
Forced : No
Audio #2
ID : 2
Format : DTS XLL
Format/Info : Digital Theater Systems
Commercial name : DTS-HD Master Audio
Codec ID : A_DTS
Duration : 1 h 59 min
Bit rate mode : Variable
Channel(s) : 2 channels
Sampling rate : 48.0 kHz
Frame rate : 93.750 FPS (512 SPF)
Bit depth : 24 bits
Compression mode : Lossless
Delay relative to video : -4 ms
Title : DTS-HD Master Audio 2.0
Language : Japanese
Default : No
Forced : No
Audio #3
ID : 3
Format : AC-3
Format/Info : Audio Coding 3
Commercial name : Dolby Digital
Codec ID : A_AC3
Duration : 1 h 59 min
Bit rate mode : Constant
Bit rate : 192 kb/s
Channel(s) : 2 channels
Channel layout : L R
Sampling rate : 48.0 kHz
Frame rate : 31.250 FPS (1536 SPF)
Bit depth : 16 bits
Compression mode : Lossy
Delay relative to video : -4 ms
Stream size : 164 MiB (1%)
Title : Dolby Digital 2.0
Language : French
Service kind : Complete Main
Default : No
Forced : No
Audio #4
ID : 4
Format : AC-3
Format/Info : Audio Coding 3
Commercial name : Dolby Digital
Codec ID : A_AC3
Duration : 1 h 59 min
Bit rate mode : Constant
Bit rate : 192 kb/s
Channel(s) : 2 channels
Channel layout : L R
Sampling rate : 48.0 kHz
Frame rate : 31.250 FPS (1536 SPF)
Bit depth : 16 bits
Compression mode : Lossy
Delay relative to video : -4 ms
Stream size : 164 MiB (1%)
Title : Dolby Digital 2.0
Language : German
Service kind : Complete Main
Default : No
Forced : No
Audio #5
ID : 5
Format : AC-3
Format/Info : Audio Coding 3
Commercial name : Dolby Digital
Codec ID : A_AC3
Duration : 1 h 59 min
Bit rate mode : Constant
Bit rate : 192 kb/s
Channel(s) : 2 channels
Channel layout : L R
Sampling rate : 48.0 kHz
Frame rate : 31.250 FPS (1536 SPF)
Bit depth : 16 bits
Compression mode : Lossy
Delay relative to video : -4 ms
Stream size : 164 MiB (1%)
Title : Dolby Digital 2.0
Language : Finnish
Service kind : Complete Main
Default : No
Forced : No
Audio #6
ID : 6
Format : AC-3
Format/Info : Audio Coding 3
Commercial name : Dolby Digital
Codec ID : A_AC3
Duration : 1 h 59 min
Bit rate mode : Constant
Bit rate : 192 kb/s
Channel(s) : 2 channels
Channel layout : L R
Sampling rate : 48.0 kHz
Frame rate : 31.250 FPS (1536 SPF)
Bit depth : 16 bits
Compression mode : Lossy
Delay relative to video : -4 ms
Stream size : 164 MiB (1%)
Title : Dolby Digital 2.0
Language : Korean
Service kind : Complete Main
Default : No
Forced : No
Audio #7
ID : 7
Format : AC-3
Format/Info : Audio Coding 3
Commercial name : Dolby Digital
Codec ID : A_AC3
Duration : 1 h 59 min
Bit rate mode : Constant
Bit rate : 192 kb/s
Channel(s) : 2 channels
Channel layout : L R
Sampling rate : 48.0 kHz
Frame rate : 31.250 FPS (1536 SPF)
Bit depth : 16 bits
Compression mode : Lossy
Delay relative to video : -4 ms
Stream size : 164 MiB (1%)
Title : Dolby Digital 2.0
Language : Chinese
Service kind : Complete Main
Default : No
Forced : No
Audio #8
ID : 8
Format : AC-3
Format/Info : Audio Coding 3
Commercial name : Dolby Digital
Codec ID : A_AC3
Duration : 1 h 59 min
Bit rate mode : Constant
Bit rate : 192 kb/s
Channel(s) : 2 channels
Channel layout : L R
Sampling rate : 48.0 kHz
Frame rate : 31.250 FPS (1536 SPF)
Bit depth : 16 bits
Compression mode : Lossy
Delay relative to video : -4 ms
Stream size : 164 MiB (1%)
Title : Dolby Digital 2.0
Language : Chinese
Service kind : Complete Main
Default : No
Forced : No
Text #1
ID : 9
Format : PGS
Muxing mode : zlib
Codec ID : S_HDMV/PGS
Codec ID/Info : Picture based subtitle format used on BDs/HD-DVDs
Language : Japanese
Default : No
Forced : No
Text #2
ID : 10
Format : PGS
Muxing mode : zlib
Codec ID : S_HDMV/PGS
Codec ID/Info : Picture based subtitle format used on BDs/HD-DVDs
Language : English
Default : No
Forced : No
Text #3
ID : 11
Format : PGS
Muxing mode : zlib
Codec ID : S_HDMV/PGS
Codec ID/Info : Picture based subtitle format used on BDs/HD-DVDs
Language : French
Default : No
Forced : No
Text #4
ID : 12
Format : PGS
Muxing mode : zlib
Codec ID : S_HDMV/PGS
Codec ID/Info : Picture based subtitle format used on BDs/HD-DVDs
Language : German
Default : No
Forced : No
Text #5
ID : 13
Format : PGS
Muxing mode : zlib
Codec ID : S_HDMV/PGS
Codec ID/Info : Picture based subtitle format used on BDs/HD-DVDs
Language : Korean
Default : No
Forced : No
Text #6
ID : 14
Format : PGS
Muxing mode : zlib
Codec ID : S_HDMV/PGS
Codec ID/Info : Picture based subtitle format used on BDs/HD-DVDs
Language : Chinese
Default : No
Forced : No
Text #7
ID : 15
Format : PGS
Muxing mode : zlib
Codec ID : S_HDMV/PGS
Codec ID/Info : Picture based subtitle format used on BDs/HD-DVDs
Language : Chinese
Default : No
Forced : No
Menu
00:00:00.000 : en:00:00:00.000
00:00:29.029 : en:00:00:29.029
00:05:19.736 : en:00:05:19.736
00:10:06.272 : en:00:10:06.272
00:14:48.471 : en:00:14:48.471
00:18:43.164 : en:00:18:43.164
00:24:11.700 : en:00:24:11.700
00:28:56.610 : en:00:28:56.610
00:33:02.856 : en:00:33:02.856
00:38:01.237 : en:00:38:01.237
00:43:40.952 : en:00:43:40.952
00:49:48.402 : en:00:49:48.402
00:55:35.332 : en:00:55:35.332
01:00:56.444 : en:01:00:56.444
01:05:40.687 : en:01:05:40.687
01:09:15.985 : en:01:09:15.985
01:16:21.577 : en:01:16:21.577
01:21:44.107 : en:01:21:44.107
01:27:18.275 : en:01:27:18.275
01:33:44.244 : en:01:33:44.244
01:38:34.033 : en:01:38:34.033
01:44:40.524 : en:01:44:40.524
01:50:59.403 : en:01:50:59.403
01:54:44.419 : en:01:54:44.419

.........................................................................................................................................

Images:
https://i.postimg.cc/rFvtHwWJ/Goki2.png|https://cdn-az.allevents.in/banners/dcf828557371b3a65d51de4bd85472d2-rimg-w526-h295-gmir.jpg|https://i.postimg.cc/vHhKshg1/pompoko1.png|https://i.postimg.cc/1zrnC8YZ/pompoko2.png|https://i.postimg.cc/SKSNKDVw/pompoko3.png|https://i.postimg.cc/ZRf9m1S7/pompoko4.png

Related at Pom Poko :
© 2019 www.gphi.it | Contacts | DMCA | Privacy Policy