» » Pom Poko 1994 1080p BDRip x265 10bit FLAC 2.0 - Goki
Language: English
Size: 12.0 GB
Rating: 4.5
Category: Dual Audio
Votes: 561
Pom Poko 1994 1080p BDRip x265 10bit FLAC 2.0 - Goki
Files:
Pom Poko (1994) (1080p BDRip x265 10bit FLAC 2.0 - Goki)
  • Pom Poko (1994) (1080p BDRip x265 10bit FLAC 2.0 - Goki).mkv (12.0 GB)
  • Pom Poko (1994) (1080p BDRip x265 10bit FLAC 2.0 - Goki).nfo (7.4 KB)
  • Pom Poko (1994) (1080p BDRip x265 10bit FLAC 2.0 - Goki)-banner.jpg (192.8 KB)
  • Pom Poko (1994) (1080p BDRip x265 10bit FLAC 2.0 - Goki)-fanart.jpg (344.9 KB)
  • Pom Poko (1994) (1080p BDRip x265 10bit FLAC 2.0 - Goki)-keyart.jpg (1.1 MB)
  • Pom Poko (1994) (1080p BDRip x265 10bit FLAC 2.0 - Goki)-poster.jpg (654.9 KB)
  • Pom Poko (1994) (1080p BDRip x265 10bit FLAC 2.0 - Goki)-thumb.jpg (497.2 KB)


info Pom-Poko-(1994)-(it-FLAC-2-0-Goki) Anime.

info Pom-Poko-(1994)-(it-FLAC-2-0-Goki) Anime. to Pom Poko (1994) (1080p BDRip x265 10bit FLAC . - Goki) Anime. co Pom Poko (1994) (1080p BDRip x265 10bit FLAC 2 0 - Goki) Anime. Be careful of what you download or face the consequences.

Specs Video: 1080p HEVC 10-bit Audio: FLAC 24-bit PP: nr-(weak aa, deband). Notes This is a more transparent encode, with all noises kept untouched. Special Thanks Thanks to all source providers: BD: U3-Project. Changelog 2018-11 Encode Vo. : episodes 01-03. Shingeki no Kyojin S3 (Vo. ). Shingeki no Kyojin S3 - 3. kv (. GB). Shingeki no Kyojin S3 - 4. Tracker details.

Video: x264 1920x1080 (CRF 14)Audio: FLAC Japanese . ch 24Bit 48000HzSubs: ASS English. Koyomimonogatari E10 - Koyomi Seed.

framing john delorean p. 7 minutes ago. the peanut butter falcon p. lying and stealing p. 8 minutes ago. the art of racing in rain p. 9 minutes ago. way home a.

Home - Animation - Pom Poko (1994) BluRay 480p & 720p. Pom Poko (1994) BluRay 480p & 720p. Director: Isao Takahata Creator: Hayao Miyazaki (idea), Isao Takahata Actors: Shinchô Kokontei, Makoto Nonomura, Yuriko Ishida, Norihei Miki. 1080p BluRay DD. x264-TayTO Video. 1280x692 1032 Kbps Audio.

anoXmous torrent or any other torrent from the Video HD - Movies. Details for this torrent. Type: Video HD - Movies.

mkv is being hosted on dl. avinmovie. This file is of MKV file extension. You can also upload it to your Google Dive.

High quality music lossless. Album and collections of high quality, lossless. Caro Emerald - Acoustic Sessions Parts 1 & 2 (2017). Вчера, 22:09 moote 138 0. Jazz, Blues. Caro Emerald - Acoustic SessionsArtist: Caro Emerald Album: Acoustic Sessions Parts 1 & 2 Label: Grandmono.



Pom Poko IMDB

Screenshots





Media Information

Unique ID : 208092288126021352238597121512458603150 (0x9C8D1DEC7D5B78332B91BB8A35CECA8E)
Complete name : Pom Poko (1080p BDRip x265 10bit FLAC 2.0 - Goki).mkv
Format : Matroska
Format version : Version 4
File size : 12.0 GiB
Duration : 1 h 59 min
Overall bit rate mode : Variable
Overall bit rate : 14.4 Mb/s
Movie name : Pom Poko (1080p BDRip x265 10bit FLAC 2.0 - Goki)
Encoded date : UTC 2019-10-01 03:21:48
Writing application : mkvmerge v28.2.0 ('The Awakening') 64-bit
Writing library : libebml v1.3.6 + libmatroska v1.4.9
Video
ID : 1
Format : HEVC
Format/Info : High Efficiency Video Coding
Format profile : Main [email protected]@Main
Codec ID : V_MPEGH/ISO/HEVC
Duration : 1 h 59 min
Bit rate : 12.1 Mb/s
Width : 1 920 pixels
Height : 1 080 pixels
Display aspect ratio : 16:9
Frame rate mode : Constant
Frame rate : 23.976 (24000/1001) FPS
Color space : YUV
Chroma subsampling : 4:2:0
Bit depth : 10 bits
Bits/(Pixel*Frame) : 0.243
Stream size : 10.1 GiB (84%)
Writing library : x265 2.9+8-27d8424c799d:[Windows][GCC 8.2.0][64 bit] 10bit
Encoding settings : cpuid=1049071 / frame-threads=3 / numa-pools=8 / wpp / no-pmode / no-pme / no-psnr / no-ssim / log-level=2 / input-csp=1 / input-res=1920x1080 / interlace=0 / total-frames=0 / level-idc=0 / high-tier=1 / uhd-bd=0 / ref=4 / no-allow-non-conformance / no-repeat-headers / annexb / no-aud / no-hrd / info / hash=0 / no-temporal-layers / open-gop / min-keyint=23 / keyint=250 / gop-lookahead=0 / bframes=8 / b-adapt=2 / b-pyramid / bframe-bias=0 / rc-lookahead=100 / lookahead-slices=4 / scenecut=40 / radl=0 / no-intra-refresh / ctu=64 / min-cu-size=8 / no-rect / no-amp / max-tu-size=32 / tu-inter-depth=2 / tu-intra-depth=2 / limit-tu=4 / rdoq-level=2 / dynamic-rd=0.00 / no-ssim-rd / signhide / no-tskip / nr-intra=0 / nr-inter=0 / no-constrained-intra / no-strong-intra-smoothing / max-merge=3 / limit-refs=2 / limit-modes / me=3 / subme=5 / merange=57 / temporal-mvp / weightp / weightb / no-analyze-src-pics / deblock=0:0 / sao / no-sao-non-deblock / rd=6 / no-early-skip / rskip / no-fast-intra / no-tskip-fast / no-cu-lossless / b-intra / no-splitrd-skip / rdpenalty=0 / psy-rd=1.30 / psy-rdoq=2.00 / no-rd-refine / no-lossless / cbqpoffs=0 / crqpoffs=0 / rc=crf / crf=17.0 / qcomp=0.60 / qpstep=4 / stats-write=0 / stats-read=0 / ipratio=1.40 / pbratio=1.30 / aq-mode=2 / aq-strength=1.10 / cutree / zone-count=0 / no-strict-cbr / qg-size=32 / no-rc-grain / qpmax=69 / qpmin=0 / no-const-vbv / sar=1 / overscan=0 / videoformat=5 / range=0 / colorprim=2 / transfer=2 / colormatrix=2 / chromaloc=0 / display-window=0 / max-cll=0,0 / min-luma=0 / max-luma=1023 / log2-max-poc-lsb=8 / vui-timing-info / vui-hrd-info / slices=1 / no-opt-qp-pps / no-opt-ref-list-length-pps / no-multi-pass-opt-rps / scenecut-bias=0.05 / no-opt-cu-delta-qp / no-aq-motion / no-hdr / no-hdr-opt / no-dhdr10-opt / no-idr-recovery-sei / analysis-reuse-level=5 / scale-factor=0 / refine-intra=0 / refine-inter=0 / refine-mv=0 / no-limit-sao / ctu-info=0 / no-lowpass-dct / refine-mv-type=0 / copy-pic=1 / max-ausize-factor=1.0 / no-dynamic-refine / no-single-sei
Language : Japanese
Default : No
Forced : No
Audio #1
ID : 2
Format : FLAC
Format/Info : Free Lossless Audio Codec
Codec ID : A_FLAC
Duration : 1 h 59 min
Bit rate mode : Variable
Bit rate : 624 kb/s
Channel(s) : 2 channels
Channel layout : L R
Sampling rate : 48.0 kHz
Frame rate : 10.417 FPS (4608 SPF)
Bit depth : 16 bits
Compression mode : Lossless
Stream size : 532 MiB (4%)
Title : FLAC 2.0
Writing library : MakeMKV v1.14.5 win(x64-release)
Language : English
Default : Yes
Forced : No
Audio #2
ID : 3
Format : FLAC
Format/Info : Free Lossless Audio Codec
Codec ID : A_FLAC
Duration : 1 h 59 min
Bit rate mode : Variable
Bit rate : 1 377 kb/s
Channel(s) : 2 channels
Channel layout : L R
Sampling rate : 48.0 kHz
Frame rate : 10.417 FPS (4608 SPF)
Bit depth : 24 bits
Compression mode : Lossless
Stream size : 1.15 GiB (10%)
Title : FLAC 2.0
Writing library : MakeMKV v1.14.5 win(x64-release)
Language : Japanese
Default : No
Forced : No
Text #1
ID : 4
Format : PGS
Codec ID : S_HDMV/PGS
Codec ID/Info : Picture based subtitle format used on BDs/HD-DVDs
Duration : 1 h 58 min
Bit rate : 40.6 kb/s
Count of elements : 2413
Stream size : 34.5 MiB (0%)
Language : English
Default : No
Forced : No
Text #2
ID : 5
Format : PGS
Codec ID : S_HDMV/PGS
Codec ID/Info : Picture based subtitle format used on BDs/HD-DVDs
Duration : 1 h 58 min
Bit rate : 50.8 kb/s
Count of elements : 4351
Stream size : 43.2 MiB (0%)
Language : Japanese
Default : No
Forced : No
Text #3
ID : 6
Format : PGS
Codec ID : S_HDMV/PGS
Codec ID/Info : Picture based subtitle format used on BDs/HD-DVDs
Duration : 1 h 58 min
Bit rate : 43.5 kb/s
Count of elements : 2796
Stream size : 37.0 MiB (0%)
Language : French
Default : No
Forced : No
Text #4
ID : 7
Format : PGS
Codec ID : S_HDMV/PGS
Codec ID/Info : Picture based subtitle format used on BDs/HD-DVDs
Duration : 1 h 58 min
Bit rate : 52.1 kb/s
Count of elements : 2254
Stream size : 44.2 MiB (0%)
Language : German
Default : No
Forced : No
Text #5
ID : 8
Format : PGS
Codec ID : S_HDMV/PGS
Codec ID/Info : Picture based subtitle format used on BDs/HD-DVDs
Duration : 1 h 57 min
Bit rate : 25.9 kb/s
Count of elements : 3004
Stream size : 21.7 MiB (0%)
Language : Korean
Default : No
Forced : No
Text #6
ID : 9
Format : PGS
Codec ID : S_HDMV/PGS
Codec ID/Info : Picture based subtitle format used on BDs/HD-DVDs
Duration : 1 h 55 min
Bit rate : 41.7 kb/s
Count of elements : 3283
Stream size : 34.5 MiB (0%)
Language : Chinese
Default : No
Forced : No
Text #7
ID : 10
Format : PGS
Codec ID : S_HDMV/PGS
Codec ID/Info : Picture based subtitle format used on BDs/HD-DVDs
Duration : 1 h 55 min
Bit rate : 41.2 kb/s
Count of elements : 3182
Stream size : 34.1 MiB (0%)
Language : Chinese
Default : No
Forced : No
Menu
00:00:00.000 : :00:00:00.000
00:00:29.029 : :00:00:29.029
00:05:19.736 : :00:05:19.736
00:10:06.272 : :00:10:06.272
00:14:48.470 : :00:14:48.471
00:18:46.416 : :00:18:43.164
00:24:11.700 : :00:24:11.700
00:28:56.609 : :00:28:56.610
00:33:02.855 : :00:33:02.856
00:38:01.237 : :00:38:01.237
00:43:40.951 : :00:43:40.952
00:49:48.402 : :00:49:48.402
00:55:35.332 : :00:55:35.332
01:00:56.444 : :01:00:56.444
01:05:40.686 : :01:05:40.687
01:09:19.280 : :01:09:15.985
01:16:21.577 : :01:16:21.577
01:21:44.107 : :01:21:44.107
01:27:18.274 : :01:27:18.275
01:33:51.459 : :01:33:44.244
01:38:34.033 : :01:38:34.033
01:44:40.524 : :01:44:40.524
01:50:59.402 : :01:50:59.403
01:54:44.419 : :01:54:44.419

Source Information

Unique ID : 175038765910603440959031826991458431306 (0x83AF3D75333AF92A8FF4EA39C5C2314A)
Complete name : Raccoon Wars 1994 1080p Bluray Remux AVC DTS-MA - BluDragon.mkv
Format : Matroska
Format version : Version 4
File size : 31.2 GiB
Duration : 1 h 59 min
Overall bit rate mode : Variable
Overall bit rate : 37.4 Mb/s
Encoded date : UTC 2014-06-18 22:28:14
Writing application : mkvmerge v6.6.0 ('The Edge Of The In Between') built on Dec 1 2013 17:55:00
Writing library : libebml v1.3.0 + libmatroska v1.4.1
Video
ID : 16
Format : AVC
Format/Info : Advanced Video Codec
Format profile : [email protected]
Format settings : CABAC / 2 Ref Frames
Format settings, CABAC : Yes
Format settings, RefFrames : 2 frames
Format settings, GOP : M=3, N=24
Codec ID : V_MPEG4/ISO/AVC
Duration : 1 h 59 min
Width : 1 920 pixels
Height : 1 080 pixels
Display aspect ratio : 16:9
Frame rate mode : Constant
Frame rate : 23.976 (24000/1001) FPS
Color space : YUV
Chroma subsampling : 4:2:0
Bit depth : 8 bits
Scan type : Progressive
Title : Raccoon Wars
Language : Japanese
Default : Yes
Forced : No
Audio #1
ID : 1
Format : PCM
Format settings : Little / Signed
Codec ID : A_PCM/INT/LIT
Duration : 1 h 59 min
Bit rate mode : Constant
Channel(s) : 2 channels
Sampling rate : 48.0 kHz
Bit depth : 16 bits
Delay relative to video : 496 ms
Title : LPCM 2.0
Language : English
Default : Yes
Forced : No
Audio #2
ID : 2
Format : DTS XLL
Format/Info : Digital Theater Systems
Commercial name : DTS-HD Master Audio
Codec ID : A_DTS
Duration : 1 h 59 min
Bit rate mode : Variable
Channel(s) : 2 channels
Sampling rate : 48.0 kHz
Frame rate : 93.750 FPS (512 SPF)
Bit depth : 24 bits
Compression mode : Lossless
Delay relative to video : -4 ms
Title : DTS-HD Master Audio 2.0
Language : Japanese
Default : No
Forced : No
Audio #3
ID : 3
Format : AC-3
Format/Info : Audio Coding 3
Commercial name : Dolby Digital
Codec ID : A_AC3
Duration : 1 h 59 min
Bit rate mode : Constant
Bit rate : 192 kb/s
Channel(s) : 2 channels
Channel layout : L R
Sampling rate : 48.0 kHz
Frame rate : 31.250 FPS (1536 SPF)
Bit depth : 16 bits
Compression mode : Lossy
Delay relative to video : -4 ms
Stream size : 164 MiB (1%)
Title : Dolby Digital 2.0
Language : French
Service kind : Complete Main
Default : No
Forced : No
Audio #4
ID : 4
Format : AC-3
Format/Info : Audio Coding 3
Commercial name : Dolby Digital
Codec ID : A_AC3
Duration : 1 h 59 min
Bit rate mode : Constant
Bit rate : 192 kb/s
Channel(s) : 2 channels
Channel layout : L R
Sampling rate : 48.0 kHz
Frame rate : 31.250 FPS (1536 SPF)
Bit depth : 16 bits
Compression mode : Lossy
Delay relative to video : -4 ms
Stream size : 164 MiB (1%)
Title : Dolby Digital 2.0
Language : German
Service kind : Complete Main
Default : No
Forced : No
Audio #5
ID : 5
Format : AC-3
Format/Info : Audio Coding 3
Commercial name : Dolby Digital
Codec ID : A_AC3
Duration : 1 h 59 min
Bit rate mode : Constant
Bit rate : 192 kb/s
Channel(s) : 2 channels
Channel layout : L R
Sampling rate : 48.0 kHz
Frame rate : 31.250 FPS (1536 SPF)
Bit depth : 16 bits
Compression mode : Lossy
Delay relative to video : -4 ms
Stream size : 164 MiB (1%)
Title : Dolby Digital 2.0
Language : Finnish
Service kind : Complete Main
Default : No
Forced : No
Audio #6
ID : 6
Format : AC-3
Format/Info : Audio Coding 3
Commercial name : Dolby Digital
Codec ID : A_AC3
Duration : 1 h 59 min
Bit rate mode : Constant
Bit rate : 192 kb/s
Channel(s) : 2 channels
Channel layout : L R
Sampling rate : 48.0 kHz
Frame rate : 31.250 FPS (1536 SPF)
Bit depth : 16 bits
Compression mode : Lossy
Delay relative to video : -4 ms
Stream size : 164 MiB (1%)
Title : Dolby Digital 2.0
Language : Korean
Service kind : Complete Main
Default : No
Forced : No
Audio #7
ID : 7
Format : AC-3
Format/Info : Audio Coding 3
Commercial name : Dolby Digital
Codec ID : A_AC3
Duration : 1 h 59 min
Bit rate mode : Constant
Bit rate : 192 kb/s
Channel(s) : 2 channels
Channel layout : L R
Sampling rate : 48.0 kHz
Frame rate : 31.250 FPS (1536 SPF)
Bit depth : 16 bits
Compression mode : Lossy
Delay relative to video : -4 ms
Stream size : 164 MiB (1%)
Title : Dolby Digital 2.0
Language : Chinese
Service kind : Complete Main
Default : No
Forced : No
Audio #8
ID : 8
Format : AC-3
Format/Info : Audio Coding 3
Commercial name : Dolby Digital
Codec ID : A_AC3
Duration : 1 h 59 min
Bit rate mode : Constant
Bit rate : 192 kb/s
Channel(s) : 2 channels
Channel layout : L R
Sampling rate : 48.0 kHz
Frame rate : 31.250 FPS (1536 SPF)
Bit depth : 16 bits
Compression mode : Lossy
Delay relative to video : -4 ms
Stream size : 164 MiB (1%)
Title : Dolby Digital 2.0
Language : Chinese
Service kind : Complete Main
Default : No
Forced : No
Text #1
ID : 9
Format : PGS
Muxing mode : zlib
Codec ID : S_HDMV/PGS
Codec ID/Info : Picture based subtitle format used on BDs/HD-DVDs
Language : Japanese
Default : No
Forced : No
Text #2
ID : 10
Format : PGS
Muxing mode : zlib
Codec ID : S_HDMV/PGS
Codec ID/Info : Picture based subtitle format used on BDs/HD-DVDs
Language : English
Default : No
Forced : No
Text #3
ID : 11
Format : PGS
Muxing mode : zlib
Codec ID : S_HDMV/PGS
Codec ID/Info : Picture based subtitle format used on BDs/HD-DVDs
Language : French
Default : No
Forced : No
Text #4
ID : 12
Format : PGS
Muxing mode : zlib
Codec ID : S_HDMV/PGS
Codec ID/Info : Picture based subtitle format used on BDs/HD-DVDs
Language : German
Default : No
Forced : No
Text #5
ID : 13
Format : PGS
Muxing mode : zlib
Codec ID : S_HDMV/PGS
Codec ID/Info : Picture based subtitle format used on BDs/HD-DVDs
Language : Korean
Default : No
Forced : No
Text #6
ID : 14
Format : PGS
Muxing mode : zlib
Codec ID : S_HDMV/PGS
Codec ID/Info : Picture based subtitle format used on BDs/HD-DVDs
Language : Chinese
Default : No
Forced : No
Text #7
ID : 15
Format : PGS
Muxing mode : zlib
Codec ID : S_HDMV/PGS
Codec ID/Info : Picture based subtitle format used on BDs/HD-DVDs
Language : Chinese
Default : No
Forced : No
Menu
00:00:00.000 : en:00:00:00.000
00:00:29.029 : en:00:00:29.029
00:05:19.736 : en:00:05:19.736
00:10:06.272 : en:00:10:06.272
00:14:48.471 : en:00:14:48.471
00:18:43.164 : en:00:18:43.164
00:24:11.700 : en:00:24:11.700
00:28:56.610 : en:00:28:56.610
00:33:02.856 : en:00:33:02.856
00:38:01.237 : en:00:38:01.237
00:43:40.952 : en:00:43:40.952
00:49:48.402 : en:00:49:48.402
00:55:35.332 : en:00:55:35.332
01:00:56.444 : en:01:00:56.444
01:05:40.687 : en:01:05:40.687
01:09:15.985 : en:01:09:15.985
01:16:21.577 : en:01:16:21.577
01:21:44.107 : en:01:21:44.107
01:27:18.275 : en:01:27:18.275
01:33:44.244 : en:01:33:44.244
01:38:34.033 : en:01:38:34.033
01:44:40.524 : en:01:44:40.524
01:50:59.403 : en:01:50:59.403
01:54:44.419 : en:01:54:44.419

.........................................................................................................................................

Images:
https://i.postimg.cc/rFvtHwWJ/Goki2.png|https://cdn-az.allevents.in/banners/dcf828557371b3a65d51de4bd85472d2-rimg-w526-h295-gmir.jpg|https://i.postimg.cc/vHhKshg1/pompoko1.png|https://i.postimg.cc/1zrnC8YZ/pompoko2.png|https://i.postimg.cc/SKSNKDVw/pompoko3.png|https://i.postimg.cc/ZRf9m1S7/pompoko4.png

Related at Pom Poko :
© 2019 www.gphi.it | Contacts | DMCA | Privacy Policy